Присоединяйтесь к нам в Telegram!, здесь всегда актуальный адрес сайта, оперативная поддержка и многое другое!!

>

5.9

iTunes

7.4

iTunes

9.4

1 сезон

1

7.4

2 сезон

7.2

iTunes

7.3

1 сезон

13

6.1

iTunes

8.3

Пиратка

30

ULTIMATE

pack

9.9

Лицензия

ВАЖНО

ИГРА 18+

pack

7.3

RePack

MK11

7.7

RePack

jed

7.8

RePack

fifa19

8.5

RePack

RDR2

RePack

NEED FOR SPEED™ PAYBACK

5 сезон

9 сезон

Бесстыжие 9 сезон

Все сериалы

все сериалы на PB.wtf

RePack

FAR CRY 5

Anonymous, доброй ночи, мы катастрофически не успеваем собрать деньги на оплату серверов, помогите нам пожалуйста 5,10,15р., для нас важна любая помощь . В качестве благодарности мы отключим Вам всю рекламу на сайте (укажите свой ник в строку Ваше имя)!

×
  
Magnet ссылка

Кроваво-красное небо / Blood Red Sky (Петер Торварт) [2021, Ужасы, боевик, WEB-DLRip-AVC] DUB [Netflix] от MediaBit pb.wtf

Кроваво-красное небо через торрент pb.wtf

Раздают: 1 [ 0 KB/s ]
Размер: 2.04 GB | Добавлен: 4 мес. 13 д. назад | Торрент скачан:179 раз
Смотреть онлайн Кроваво-красное небо | Скачать    Ребята, помогите собрать деньги на оплату серверов!!!

23-07-2021 19:50 Кроваво-красное небо Скачать торрент  


Кроваво-красное небо / Blood Red Sky
Информация о фильме:
Название: Кроваво-красное небо
Оригинальное название: Blood Red Sky
Год выхода: 2021
Жанр: Ужасы, боевик
Режиссер: Петер Торварт
В ролях: Грэм МакТавиш, Доминик Пёрселл, Роланд Мюллер, Пери Баумейстер, Александр Шеер, Чиди Аджуфо, Синед Фелпс, Ребекка Дайсон-Смит, Джим Хай, Леони Шарлотта Бриль

Описание: Террористы, захватившие самолет, следующий ночным трансатлантическим рейсом, не подозревали, что среди пассажиров окажется женщина со странным заболеванием, не поздоровится от которого, в первую очередь, им.



Страна: Германия, США
Студия: Rat Pack Filmproduktion GmbH, Sirena Film
Продолжительность: 02:03:06
Перевод: Дублированный - Netflix



Информация о файле:
Кодек: AVC
Формат: MKV
Качество: WEB-DLRip-AVC
Видео: MPEG-4 AVC, 1024x512, 25.000fps, 1934 kbps
Аудио RU: AC3, 6 ch, 48 kHz, 448 kbps
Субтитры: Русские (Forced, full), немецкие

x264 info: frame I:1345 Avg QP: 9.09 size: 62199
x264 info: frame P:41394 Avg QP:12.76 size: 21182
x264 info: frame B:141924 Avg QP:15.89 size: 5760
General
Unique ID : 20035971132232894584212795907740431502 (0xF12C9A5308F2F691EA7C175C166748E)
Complete name : D:uTorrentРипы wolf1245Kravavoje.Krasnoje.Nebo.2021.DUB.Netflix.WEB-DLRip-AVC.[wolf1245.MediaBit].mkv
Format : Matroska
Format version : Version 4
File size : 2.04 GiB
Duration : 2 h 3 min
Overall bit rate : 2 376 kb/s
Movie name : Kravavoje.Krasnoje.Nebo.2021.DUB.Netflix.WEB-DLRip-AVC.[wolf1245.MediaBit]
Encoded date : UTC 2021-07-23 19:37:02
Writing application : mkvmerge v59.0.0 ('Shining Star') 64-bit
Writing library : libebml v1.4.2 + libmatroska v1.6.4

Video
ID : 1
Format : AVC
Format/Info : Advanced Video Codec
Format profile : High@L4.1
Format settings : CABAC / 12 Ref Frames
Format settings, CABAC : Yes
Format settings, Reference frames : 12 frames
Codec ID : V_MPEG4/ISO/AVC
Duration : 2 h 3 min
Bit rate : 1 934 kb/s
Width : 1 024 pixels
Height : 512 pixels
Display aspect ratio : 2.000
Frame rate mode : Constant
Frame rate : 25.000 FPS
Color space : YUV
Chroma subsampling : 4:2:0
Bit depth : 8 bits
Scan type : Progressive
Bits/(Pixel*Frame) : 0.148
Stream size : 1.66 GiB (81%)
Title : WEB-DLRip-AVC.[wolf1245.MediaBit]
Writing library : x264 core 157 r2958 57baac4
Encoding settings : cabac=1 / ref=12 / deblock=1:-2:-2 / analyse=0x3:0x133 / me=umh / subme=10 / psy=1 / psy_rd=0.97:0.05 / mixed_ref=1 / me_range=32 / chroma_me=1 / trellis=2 / 8x8dct=1 / cqm=0 / deadzone=21,11 / fast_pskip=1 / chroma_qp_offset=-3 / threads=10 / lookahead_threads=2 / sliced_threads=0 / nr=0 / decimate=1 / interlaced=0 / bluray_compat=0 / constrained_intra=0 / bframes=10 / b_pyramid=2 / b_adapt=2 / b_bias=0 / direct=3 / weightb=1 / open_gop=0 / weightp=2 / keyint=250 / keyint_min=25 / scenecut=40 / intra_refresh=0 / rc_lookahead=60 / rc=2pass / mbtree=1 / bitrate=1934 / ratetol=1.0 / qcomp=0.60 / qpmin=0 / qpmax=69 / qpstep=4 / cplxblur=20.0 / qblur=0.5 / vbv_maxrate=50000 / vbv_bufsize=62500 / nal_hrd=none / filler=0 / ip_ratio=1.40 / aq=1:0.80
Language : English
Default : Yes
Forced : No

Audio
ID : 2
Format : AC-3
Format/Info : Audio Coding 3
Commercial name : Dolby Digital
Codec ID : A_AC3
Duration : 2 h 3 min
Bit rate mode : Constant
Bit rate : 448 kb/s
Channel(s) : 6 channels
Channel layout : L R C LFE Ls Rs
Sampling rate : 48.0 kHz
Frame rate : 31.250 FPS (1536 SPF)
Compression mode : Lossy
Stream size : 394 MiB (19%)
Language : Russian
Service kind : Complete Main
Default : Yes
Forced : No

Text #1
ID : 3
Format : UTF-8
Codec ID : S_TEXT/UTF8
Codec ID/Info : UTF-8 Plain Text
Duration : 2 h 1 min
Bit rate : 1 b/s
Count of elements : 25
Stream size : 1.34 KiB (0%)
Title : Forced
Language : Russian
Default : Yes
Forced : Yes

Text #2
ID : 4
Format : UTF-8
Codec ID : S_TEXT/UTF8
Codec ID/Info : UTF-8 Plain Text
Duration : 2 h 1 min
Bit rate : 47 b/s
Count of elements : 987
Stream size : 41.8 KiB (0%)
Title : Russian
Language : Russian
Default : No
Forced : No

Text #3
ID : 5
Format : UTF-8
Codec ID : S_TEXT/UTF8
Codec ID/Info : UTF-8 Plain Text
Duration : 2 h 0 min
Bit rate : 54 b/s
Count of elements : 1274
Stream size : 48.1 KiB (0%)
Title : German
Language : German
Default : No
Forced : No
Релиз от: &

Автор релиза:
pb.wtf



Скачать Кроваво-красное небо через торрент https://i115.fastpic.ru/big/2021/0723/0c/88c6a04e86a7b9ff052df6a11c568e0c.jpg Скачать, смотреть онлайн Кроваво-красное небо бесплантно в хорошем качестве Описание: Террористы, захватившие самолет, следующий ночным трансатлантическим рейсом, не подозревали, что среди пассажиров окажется ... 9.7 10 6
Торрент: Зарегистрирован [2021-07-23 19:50] · скачан: 179 раз
Статус: √ проверено
Размер: 2.04 GB
Как cкачать? Как скачать Кроваво-красное небо через торрент | UTorrent

28-11-2019 20:33  

Отключить всю рекламу на сайте

    Дорогой пользователь! Огромная просьба, поблагодарите релизера, оцените раздачу и оставьте свои комментарий, если Вы скачали Кроваво-красное небо через торрент бесплатно!
    Комментировать посты могут только пользователи прошедшие не сложную регистрацию
    Показать сообщения:    

    Кроваво-красное небо через торрент
    Скачать бесплатно Кроваво-красное небо
    Кроваво-красное небо скачать торрент
    Кроваво-красное небо смотреть онлайн
    Cкачать фильм Кроваво-красное небо бесплатно
    Кроваво-красное небо скачать торрент в хорошем качестве
    Кроваво-красное небо смотреть онлайн бесплатно в хорошем качестве


    Вы не можете начинать темы
    Вы не можете отвечать на сообщения
    Вы не можете редактировать свои сообщения
    Вы не можете удалять свои сообщения
    Вы не можете голосовать в опросах
    Вы не можете прикреплять файлы к сообщениям
    Вы можете скачивать файлы