Достать ножи: Стеклянная луковица

MVO

Добыча

Дубляж

Уэнсдэй

1 сезон

Тор

Дубляж

13 клиническая

1 сезон

Жестокая ночь

MVO

Одни из нас

1 сезон

Deluxe

pack

Рекомендуем

30

Пиратка

ВАЖНО

ВАЖНО

Ghostwire

Пиратка

jed

RePack

nioh2

RePack

RDR2

RePack

NEED FOR SPEED™ PAYBACK

RePack

скачать торрент

Кинопоиск HD

Острые козырьки 6 сезон

6 сезон

FAR CRY 6

RePack

скачать торрент

Лицензия

скачать торрент

MVO

1

1 сезон

скачать торрент

1 сезон

скачать торрент

Лицензия

  

Властелины вселенной: Откровение / Masters of the Universe: Revelation / Сезон: 1 / Серии: 1-10 из 10 (Кевин Смит) [2021, Мультсериал, фантастика, фэнтези, боевик, приключения, WEB-DL 1080p] [MVO] (HDRezka)

Властелины вселенной: Откровение через торрент pb.wtf

Размер: 7.9 GB | Добавлен: 1 год 2 мес. назад | Торрент скачан:38 раз
Смотреть онлайн | Скачать | Поддержите нас   

24-07-2021 07:11 Властелины вселенной: Откровение Скачать торрент  

Властелины вселенной: Откровение / Masters of the Universe: Revelation

• Год выпуска: 2021
• Страна: США
• Жанр: Мультсериал, фантастика, фэнтези, боевик, приключения
• Продолжительность: ~ 00:25:00
• Перевод: Профессиональный (многоголосый закадровый) *HDRezka
• Субтитры: английские, русские, украинские

• Режиссёр: Кевин Смит
• В ролях: Адам Гиффорд, Дэннис Хэйсбёрт, Джей Таваре, Крис Вуд, Дидрих Бадер, Кевин Конрой, Лиам Каннингэм, Сьюзэн Эйзенберг, Сара Мишель Геллар, Марк Хэмилл

• Описание: Война за Этернию разгорается вновь, и но этот раз битва между Хи-Мэном и Скелетором может стать последней.

rating скриншот  

• Качество: WEB-DL 1080p
• Формат: MKV
• Видео кодек: x.264
• Аудио кодек: AC3
• Видео: AVC, 1920x1080, ~5 660 kbps, 24 fps
• Аудио №1: 48 kHz, AC3, 6 ch, ~448 kbps - HDRezka
• Аудио №2: 48 kHz, E-AC3, 6 ch, ~640 kbps - English
скриншот   скриншот   скриншот   скриншот   скриншот   скриншот   скриншот  
General
Unique ID : 237344757563013268032447353331028188698 (0xB28EF004CF5729BC8B109E08A205DE1A)
Complete name : F:\Masters of the Universe_Revelation.S01.WEB-DL(1080p)\Masters of the Universe_Revelation.S01E01.NF.WEB-DL(1080p).[MVO] (HDRezka).xz.mkv
Format : Matroska
Format version : Version 4 / Version 2
File size : 1.24 GiB
Duration : 25mn 50s
Overall bit rate mode : Variable
Overall bit rate : 6 885 Kbps
Movie name : Masters of the Universe_Revelation.S01E01.NF.WEB-DL(1080p).[MVO] (HDRezka).xz
Encoded date : UTC 2021-07-24 07:01:37
Writing application : mkvmerge v6.1.0 ('Old Devil') built on Mar 2 2013 14:32:37
Writing library : libebml v1.3.0 + libmatroska v1.4.0
DURATION : 00:24:47.167000000
NUMBER_OF_FRAMES : 236
NUMBER_OF_BYTES : 14069
_STATISTICS_WRITING_APP : mkvmerge v59.0.0 ('Shining Star') 64-bit
_STATISTICS_TAGS : BPS DURATION NUMBER_OF_FRAMES NUMBER_OF_BYTES

Video
ID : 1
Format : AVC
Format/Info : Advanced Video Codec
Format profile : [email protected]
Format settings, CABAC : Yes
Format settings, ReFrames : 3 frames
Codec ID : V_MPEG4/ISO/AVC
Duration : 25mn 50s
Bit rate mode : Variable
Bit rate : 5 660 Kbps
Nominal bit rate : 6 190 Kbps
Maximum bit rate : 9 285 Kbps
Width : 1 920 pixels
Height : 1 080 pixels
Display aspect ratio : 16:9
Frame rate mode : Constant
Frame rate : 24.000 fps
Color space : YUV
Chroma subsampling : 4:2:0
Bit depth : 8 bits
Scan type : Progressive
Bits/(Pixel*Frame) : 0.114
Stream size : 1.02 GiB (82%)
Title : Masters of the Universe_Revelation.S01E01.NF.WEB-DL(1080p).[MVO] (HDRezka).xz
Writing library : x264 core 148 r2722 1b0121b
Encoding settings : cabac=1 / ref=3 / deblock=1:0:0 / analyse=0x1:0x111 / me=umh / subme=10 / psy=1 / psy_rd=1.00:0.00 / mixed_ref=1 / me_range=24 / chroma_me=1 / trellis=2 / 8x8dct=0 / cqm=0 / deadzone=21,11 / fast_pskip=1 / chroma_qp_offset=-2 / threads=8 / lookahead_threads=1 / sliced_threads=0 / nr=0 / decimate=1 / interlaced=0 / bluray_compat=0 / stitchable=1 / constrained_intra=0 / bframes=2 / b_pyramid=0 / b_adapt=2 / b_bias=0 / direct=3 / weightb=1 / open_gop=0 / weightp=2 / keyint=250 / keyint_min=24 / scenecut=0 / intra_refresh=0 / rc_lookahead=48 / rc=2pass / mbtree=1 / bitrate=6190 / ratetol=1.0 / qcomp=0.50 / qpmin=6 / qpmax=51 / qpstep=4 / cplxblur=20.0 / qblur=0.5 / vbv_maxrate=9285 / vbv_bufsize=12380 / nal_hrd=vbr / filler=0 / ip_ratio=1.40 / aq=1:1.00
Default : Yes
Forced : No

Audio #1
ID : 2
Format : AC-3
Format/Info : Audio Coding 3
Mode extension : CM (complete main)
Format settings, Endianness : Big
Codec ID : A_AC3
Duration : 25mn 50s
Bit rate mode : Constant
Bit rate : 448 Kbps
Channel(s) : 6 channels
Channel positions : Front: L C R, Side: L R, LFE
Sampling rate : 48.0 KHz
Compression mode : Lossy
Stream size : 82.8 MiB (7%)
Title : HDRezka
Language : Russian
Default : Yes
Forced : No

Audio #2
ID : 3
Format : E-AC-3
Format/Info : Audio Coding 3
Format settings, Endianness : Big
Codec ID : A_EAC3
Duration : 25mn 50s
Bit rate mode : Constant
Bit rate : 640 Kbps
Channel(s) : 6 channels
Channel positions : Front: L C R, Side: L R, LFE
Sampling rate : 48.0 KHz
Compression mode : Lossy
Stream size : 118 MiB (9%)
Title : Eng
Language : English
Default : No
Forced : No

Text #1
ID : 4
Format : UTF-8
Codec ID : S_TEXT/UTF8
Codec ID/Info : UTF-8 Plain Text
Title : English (SDH)
Language : English
Default : No
Forced : No

Text #2
ID : 5
Format : UTF-8
Codec ID : S_TEXT/UTF8
Codec ID/Info : UTF-8 Plain Text
Title : Русский
Language : Russian
Default : No
Forced : No

Text #3
ID : 6
Format : UTF-8
Codec ID : S_TEXT/UTF8
Codec ID/Info : UTF-8 Plain Text
Title : Українська
Language : Ukrainian
Default : No
Forced : No
Внимание! Раздача ведётся путём добавления новых серий; при каждом добавлении создаётся новый торрент.
Чтобы начать докачку новой серии, пользователям необходимо сделать следующее:
1. Остановить скачивание.
2. Удалить старый торрент у себя из клиента (старые серии удалять не надо).
3. Скачать новый торрент и запустить его у себя в клиенте вместо старого, при этом указать клиенту путь в старую папку куда и должно происходить скачивание новых серий.
Ваш клиент при этом должен произвести хеширование (проверку) старой папки (если не производит сам - помогите ему сделать это), и будет докачивать только те серии которых у вас ещё нет. Старые серии при этом не удаляются, а продолжают раздаваться!
Eсли вы уже удалили старые серии, то предотвратить повторную закачку старых серий можно, отжав галочку в соответствующих местах при запуске нового торрента.



Скачать Властелины вселенной: Откровение через торрент https://i115.fastpic.ru/big/2021/0724/a4/e721580d5ca9dedd6dec6f5b7be36aa4.jpg Скачать, смотреть онлайн Властелины вселенной: Откровение бесплантно в хорошем качестве Описание: Война за Этернию разгорается вновь, и но этот раз битва между Хи-Мэном и Скелетором может стать последней. • ... 10 10 7
Торрент: Зарегистрирован [2021-11-25 21:08] · скачан: 38 раз
Статус: √ проверено
Размер: 7.9 GB
Как cкачать? Как скачать Властелины вселенной: Откровение через торрент | UTorrent

28-11-2019 20:33  


Отключить вcю реклaмy на сайте, в т.ч. и в плеере онлайн просмотра!

25-11-2021 23:57 Властелины вселенной: Откровение Скачать торрент  

что такое УГ(по оценкам) или просто патриотам олдскула пуканы разорвало) ?

а по трейлеру ничего, качественно, забираю, пасиб



    Дорогой пользователь! Огромная просьба, поблагодарите релизера, оцените раздачу и оставьте свои комментарий, если Вы скачали Властелины вселенной: Откровение через торрент бесплатно!!
    Комментировать посты могут только пользователи прошедшие не сложную регистрацию
    Показать сообщения:    


    Властелины вселенной: Откровение через торрент
    Скачать бесплатно Властелины вселенной: Откровение
    Властелины вселенной: Откровение скачать торрент
    Властелины вселенной: Откровение смотреть онлайн
    Cкачать фильм Властелины вселенной: Откровение бесплатно
    Властелины вселенной: Откровение скачать торрент в хорошем качестве
    Властелины вселенной: Откровение смотреть онлайн бесплатно в хорошем качестве
    Вы не можете начинать темы
    Вы не можете отвечать на сообщения
    Вы не можете редактировать свои сообщения
    Вы не можете удалять свои сообщения
    Вы не можете голосовать в опросах
    Вы не можете прикреплять файлы к сообщениям
    Вы можете скачивать файлы
    Властелины вселенной: Откровение / Masters of the Universe: Revelation / Сезон: 1 / Серии: 1-10 из 10 [2021, Мультсериал, фантастика, фэнтези, боевик, приключения, WEB-DL 1080p] [MVO] смотреть онлайн, скачать торрент picoco.icu