>

5.6

iTunes

6.1

MVO

5.7

MVO

1

7.4

1 сезон

6.8

iTunes

7.2

1 сезон

13

6.7

1 сезон

8.3

RePack

30

Deluxe

pack

9.9

Лицензия

ВАЖНО

ИГРА 18+

pack

7.3

RePack

MK11

7.7

RePack

jed

7.8

RePack

fifa19

8.5

RePack

RDR2

RePack

NEED FOR SPEED™ PAYBACK

4 сезон

9 сезон

Бесстыжие 9 сезон

Все сериалы

все сериалы на PB.wtf

RePack

FAR CRY 5

Anonymous, доброй ночи, мы катастрофически не успеваем собрать деньги на оплату серверов, помогите нам пожалуйста 5,10,15р., для нас важна любая помощь . В качестве благодарности мы отключим Вам всю рекламу на сайте (укажите свой ник в строку Ваше имя)!

×
  
Magnet ссылка

Жар-птица / Firebird (Питер Ребане) [2021 г., Драма, мелодрама, WEB-DLRip, Любительский многоголосый ] pb.wtf

Жар-птица через торрент pb.wtf

Раздают: 1 [ 0 KB/s ]
Размер: 1.37 GB | Добавлен: 2 мес. назад | Торрент скачан:30 раз
Смотреть онлайн Жар-птица | Скачать    Ребята, помогите собрать деньги на оплату серверов!!!

24-07-2021 07:27 Жар-птица Скачать торрент  

Жар-птица / Firebird
Год выпуска: 2021
Страна: Эстония, Великобритания
Жанр: Драма, мелодрама
Продолжительность: 01:47:42
Перевод: Любительский многоголосый

Режиссер: Питер Ребане

Премьера в мире: 17 марта 2021

В ролях: Том Прайор, Николас Вудесон, Олег Загородний, Диана Пожарская, Каспар Велберг, Эстер Кунту, Стэн Карпов, Расмус Кальюярв

Описание: На фоне Холодной войны разворачивается сложный и опасный любовный треугольник между секретаршей командира авиабазы Луизой, ее лучшим другом Сергеем и летчиком Романом.

Качество: WEB-DLRip
Формат: AVI
Видео кодек: XviD
Аудио кодек: AC3
Видео: XviD, 1551 Кбит/с, 720x384
Аудио#1: Русский (AC3, 2 ch, 256 Кбит/с)




Общее
Полное имя : D:\торенты\zagrujehhie\Firebird.2021.P.WEB-DLRip.14OOMB.avi
Формат : AVI
Формат/Информация : Audio Video Interleave
Размер файла : 1,37 Гбайт
Продолжительность : 1 ч. 47 м.
Общий поток : 1 817 Кбит/сек
Программа кодирования : VirtualDubMod 1.5.10.3 | www.virtualdub-fr.org || (build 2550/release)
Библиотека кодирования : VirtualDubMod build 2550/release

Видео
Идентификатор : 0
Формат : MPEG-4 Visual
Профиль формата : Advanced Simple@L5
Настройки формата : BVOP2 / Custom Matrix
Параметр BVOP формата : 2
Параметр QPel формата : Нет
Параметр GMC формата : Без точки перехода
Параметр матрицы формата : Выборочная
Идентификатор кодека : XVID
Идентификатор кодека/Подсказка : XviD
Продолжительность : 1 ч. 47 м.
Битрейт : 1 552 Кбит/сек
Ширина : 720 пикселей
Высота : 384 пикселя
Соотношение сторон : 1,85:1
Частота кадров : 23,976 (24000/1001) кадра/сек
Цветовое пространство : YUV
Субдискретизация насыщенности : 4:2:0
Битовая глубина : 8 бит
Тип развёртки : Прогрессивная
Метод сжатия : С потерями
Бит/(Пиксели*Кадры) : 0.234
Размер потока : 1,17 Гбайт (85%)
Библиотека кодирования : XviD 1.2.1 (UTC 2008-12-04)

Аудио
Идентификатор : 1
Формат : AC-3
Формат/Информация : Audio Coding 3
Коммерческое название : Dolby Digital
Идентификатор кодека : 2000
Продолжительность : 1 ч. 47 м.
Вид битрейта : Постоянный
Битрейт : 256 Кбит/сек
Каналы : 2 канала
Channel layout : L R
Частота : 48,0 КГц
Частота кадров : 31,250 кадров/сек (1536 SPF)
Метод сжатия : С потерями
Размер потока : 197 Мбайт (14%)
Выравнивание : Разделение по промежуткам
Продолжительность промежутка : 42 мс. (1,00 видеокадр)
Время предзагрузки промежутка : 500 мс.
Service kind : Complete Main

pb.wtf



Скачать Жар-птица через торрент https://b.radikal.ru/b31/2107/58/45d06121e4d5.jpg Скачать, смотреть онлайн Жар-птица бесплантно в хорошем качестве Описание: На фоне Холодной войны разворачивается сложный и опасный любовный треугольник между секретаршей командира авиабазы Луизой, ее ... 9.3 10 3
Торрент: Зарегистрирован [2021-07-24 07:27] · скачан: 30 раз
Статус: T временная
Размер: 1.37 GB
Как cкачать? Как скачать Жар-птица через торрент | UTorrent

28-11-2019 20:33  

Отключить всю рекламу на сайте

28-07-2021 01:53 Жар-птица Скачать торрент  

30-07-2021 18:31 Жар-птица Скачать торрент  

, !pb.wtf



04-09-2021 15:56 Жар-птица Скачать торрент  

Я так понимаю фильм про то, что женщина-извращенка влюбилась в парня. Но ей ни чего не светит, так как будет крепкая семья с детишками, состоящая из 2х гомосеков?

пс. для неграмотных модераторов: вы цензурируете медицинский термин.pb.wtf



    Дорогой пользователь! Огромная просьба, поблагодарите релизера, оцените раздачу и оставьте свои комментарий, если Вы скачали Жар-птица через торрент бесплатно!
    Комментировать посты могут только пользователи прошедшие не сложную регистрацию
    Показать сообщения:    

    Жар-птица через торрент
    Скачать бесплатно Жар-птица
    Жар-птица скачать торрент
    Жар-птица смотреть онлайн
    Cкачать фильм Жар-птица бесплатно
    Жар-птица скачать торрент в хорошем качестве
    Жар-птица смотреть онлайн бесплатно в хорошем качестве


    Вы не можете начинать темы
    Вы не можете отвечать на сообщения
    Вы не можете редактировать свои сообщения
    Вы не можете удалять свои сообщения
    Вы не можете голосовать в опросах
    Вы не можете прикреплять файлы к сообщениям
    Вы можете скачивать файлы