Всегда рабочее зеркало без VPN и Proxy просто перед .vidak.icu напиши любое слово или цифру, Пример http://c1g8.vidak.icu

Лицензия

MVO

1 сезон

1

1 сезон

iTunes

1 сезон

13

1 сезон

Deluxe

pack

Рекомендуем

Repack

30

ВАЖНО

RePack

MK11

RePack

jed

RePack

fifa19

RePack

RDR2

RePack

NEED FOR SPEED™ PAYBACK

Кинопоиск HD

6 сезон

 Острые козырьки 6 сезон

Все сериалы

все сериалы на PB.wtf

RePack

FAR CRY 5
  
Magnet ссылка

Райя и последний дракон / Raya and the Last Dragon (Дон Холл, Карлос Лопес Эстрада, Пол Бриггс) [2021, мультфильм, фэнтези, боевик, комедия, WEB-DLRip-AVC] DUB [Невафильм, Локализованный видеоряд] от MediaBit pb.wtf

Райя и последний дракон через торрент pb.wtf

Размер: 2.05 GB | Добавлен: 1 год назад | Торрент скачан:193 раза
Смотреть онлайн Райя и последний дракон | Скачать    Ребята, помогите собрать деньги на оплату серверов!!!

24-07-2021 11:33 Райя и последний дракон Скачать торрент  


Райя и последний дракон / Raya and the Last Dragon
Информация о фильме:
Название: Райя и последний дракон
Оригинальное название: Raya and the Last Dragon
Год выхода: 2021
Жанр: мультфильм, фэнтези, боевик, комедия
Режиссер: Дон Холл, Карлос Лопес Эстрада, Пол Бриггс
В ролях: Келли Мари Трэн, Аквафина, Айзек Ванг, Джемма Чан, Дэниэл Дэ Ким, Бенедикт Вонг, Джона Сяо, Сандра О, Талия Чан, Люсиль Сун

Описание: Давным-давно в волшебной стране Кумандре бок о бок с людьми жили драконы — создатели и хранители воды. Мирной жизни пришел конец, когда появились друуны. Порождения тьмы обращали людей и драконов в каменные изваяния, и только магия драконихи Сису смогла прогнать злых созданий и расколдовать людей, но на драконов не подействовала. Кумандра раскололась на государства Сердца, Клыка, Когтя, Хребта и Хвоста, а волшебный драконий камень хранился в стране Сердца, которой правил отец Райи. Он мечтал объединить земли, но из-за человеческой жадности и зависти артефакт раскололся. Правитель каждой страны заполучил по осколку, а друуны снова стали властвовать безраздельно.



Страна: США
Студия: Walt Disney Animation Studios, Walt Disney Pictures
Продолжительность: 01:47:28
Перевод: Дублированный - Невафильм



Информация о файле:
Кодек: AVC
Формат: MKV
Качество: WEB-DLRip-AVC
Видео: MPEG-4 AVC, 1024x428, 23.976 fps, 1897kbps
Аудио RU: AC3, 6 ch, 48 kHz, 384 kbps
Аудио EN: AC3, 6 ch, 48 kHz, 448 kbps
Субтитры: Русские, английские (Full, SDH)
Навигация по главам: Да

x264 info: frame I:1304 Avg QP:14.35 size: 80204
x264 info: frame P:35835 Avg QP:17.97 size: 22690
x264 info: frame B:117470 Avg QP:21.64 size: 5204
x264 info: consecutive B-frames: 3.9% 3.5% 8.7% 14.3% 11.5% 56.1% 1.1% 0.1% 0.2% 0.2% 0.4%
General
Unique ID : 15124579152489169494556572525271763223 (0xB60E353389ABE4EACDBB7B95028C917)
Complete name : D:uTorrentРипы wolf1245Raya.Dragon.2021.DUB.WEB-DLRip-AVC.[wolf1245.MediaBit].mkv
Format : Matroska
Format version : Version 4
File size : 2.05 GiB
Duration : 1 h 47 min
Overall bit rate : 2 731 kb/s
Movie name : Raya.Dragon.2021.DUB.WEB-DLRip-AVC.[wolf1245.MediaBit]
Encoded date : UTC 2021-07-24 11:18:30
Writing application : mkvmerge v59.0.0 ('Shining Star') 64-bit
Writing library : libebml v1.4.2 + libmatroska v1.6.4

Video
ID : 1
Format : AVC
Format/Info : Advanced Video Codec
Format profile : [email protected]
Format settings : CABAC / 12 Ref Frames
Format settings, CABAC : Yes
Format settings, Reference frames : 12 frames
Codec ID : V_MPEG4/ISO/AVC
Duration : 1 h 47 min
Bit rate : 1 897 kb/s
Width : 1 024 pixels
Height : 428 pixels
Display aspect ratio : 2.40:1
Frame rate mode : Constant
Frame rate : 23.976 (24000/1001) FPS
Color space : YUV
Chroma subsampling : 4:2:0
Bit depth : 8 bits
Scan type : Progressive
Bits/(Pixel*Frame) : 0.181
Stream size : 1.42 GiB (69%)
Title : .[wolf1245.MediaBit]
Writing library : x264 core 157 r2958 57baac4
Encoding settings : cabac=1 / ref=12 / deblock=1:-2:-2 / analyse=0x3:0x133 / me=umh / subme=10 / psy=1 / psy_rd=0.98:0.05 / mixed_ref=1 / me_range=32 / chroma_me=1 / trellis=2 / 8x8dct=1 / cqm=0 / deadzone=21,11 / fast_pskip=1 / chroma_qp_offset=-3 / threads=10 / lookahead_threads=2 / sliced_threads=0 / nr=0 / decimate=1 / interlaced=0 / bluray_compat=0 / constrained_intra=0 / bframes=10 / b_pyramid=2 / b_adapt=2 / b_bias=0 / direct=3 / weightb=1 / open_gop=0 / weightp=2 / keyint=240 / keyint_min=24 / scenecut=40 / intra_refresh=0 / rc_lookahead=60 / rc=2pass / mbtree=1 / bitrate=1897 / ratetol=1.0 / qcomp=0.60 / qpmin=0 / qpmax=69 / qpstep=4 / cplxblur=20.0 / qblur=0.5 / vbv_maxrate=50000 / vbv_bufsize=62500 / nal_hrd=none / filler=0 / ip_ratio=1.40 / aq=1:0.80
Language : Russian
Default : Yes
Forced : No
Color range : Limited
Color primaries : BT.709
Transfer characteristics : BT.709
Matrix coefficients : BT.709

Audio #1
ID : 2
Format : AC-3
Format/Info : Audio Coding 3
Commercial name : Dolby Digital
Codec ID : A_AC3
Duration : 1 h 47 min
Bit rate mode : Constant
Bit rate : 384 kb/s
Channel(s) : 6 channels
Channel layout : L R C LFE Ls Rs
Sampling rate : 48.0 kHz
Frame rate : 31.250 FPS (1536 SPF)
Compression mode : Lossy
Stream size : 295 MiB (14%)
Title : DUB | Невафильм
Language : Russian
Service kind : Complete Main
Default : Yes
Forced : No

Audio #2
ID : 3
Format : AC-3
Format/Info : Audio Coding 3
Commercial name : Dolby Digital
Codec ID : A_AC3
Duration : 1 h 47 min
Bit rate mode : Constant
Bit rate : 448 kb/s
Channel(s) : 6 channels
Channel layout : L R C LFE Ls Rs
Sampling rate : 48.0 kHz
Frame rate : 31.250 FPS (1536 SPF)
Compression mode : Lossy
Stream size : 344 MiB (16%)
Title : Original
Language : English
Service kind : Complete Main
Default : No
Forced : No

Text #1
ID : 4
Format : UTF-8
Codec ID : S_TEXT/UTF8
Codec ID/Info : UTF-8 Plain Text
Duration : 1 h 45 min
Bit rate : 69 b/s
Count of elements : 1149
Stream size : 53.9 KiB (0%)
Language : Russian
Default : No
Forced : No

Text #2
ID : 5
Format : UTF-8
Codec ID : S_TEXT/UTF8
Codec ID/Info : UTF-8 Plain Text
Duration : 1 h 37 min
Bit rate : 50 b/s
Count of elements : 1363
Stream size : 36.3 KiB (0%)
Language : English
Default : No
Forced : No

Text #3
ID : 6
Format : UTF-8
Codec ID : S_TEXT/UTF8
Codec ID/Info : UTF-8 Plain Text
Duration : 1 h 37 min
Bit rate : 68 b/s
Count of elements : 1919
Stream size : 48.8 KiB (0%)
Title : SDH
Language : English
Default : No
Forced : No

Menu
00:00:00.000 : :Глава 1
00:08:08.029 : :Глава 2
00:10:59.492 : :Глава 3
00:15:15.748 : :Глава 4
00:20:14.671 : :Глава 5
00:28:28.081 : :Глава 6
00:35:56.237 : :Глава 7
00:37:42.593 : :Глава 8
00:41:11.927 : :Глава 9
00:43:18.720 : :Глава 10
00:48:55.723 : :Глава 11
00:51:30.836 : :Глава 12
00:53:13.063 : :Глава 13
00:55:20.398 : :Глава 14
00:59:07.374 : :Глава 15
01:01:56.710 : :Глава 16
01:04:33.908 : :Глава 17
01:06:46.624 : :Глава 18
01:11:21.148 : :Глава 19
01:15:50.542 : :Глава 20
01:18:40.336 : :Глава 21
01:28:25.546 : :Глава 22
01:35:07.614 : :Глава 23
Релиз от: &

Автор релиза:
pb.wtf



Скачать Райя и последний дракон через торрент https://i115.fastpic.ru/big/2021/0723/65/9c227a431f5ba37056e40b6ff4572765.png Скачать, смотреть онлайн Райя и последний дракон бесплантно в хорошем качестве Описание: Давным-давно в волшебной стране Кумандре бок о бок с людьми жили драконы — создатели и хранители воды. Мирной жизни пришел ... 10 10 2
Торрент: Зарегистрирован [2021-07-24 11:33] · скачан: 193 раз
Статус: √ проверено
Размер: 2.05 GB
Как cкачать? Как скачать Райя и последний дракон через торрент | UTorrent

% Раздел Тема Автор DL S | L
Иностранные мультфильмы [ 1.45 GB ] Райя и последний дракон / Raya and the Last Dragon [2021 Мультфильм WEB-DLRip-AVC] [Line] от MediaBit Lithuania Скачать
3 | 0

28-11-2019 20:33  

Отключить вcю реклaмy на сайте

    Дорогой пользователь! Огромная просьба, поблагодарите релизера, оцените раздачу и оставьте свои комментарий, если Вы скачали Райя и последний дракон через торрент бесплатно!
    Комментировать посты могут только пользователи прошедшие не сложную регистрацию
    Показать сообщения:    

    Райя и последний дракон через торрент
    Скачать бесплатно Райя и последний дракон
    Райя и последний дракон скачать торрент
    Райя и последний дракон смотреть онлайн
    Cкачать фильм Райя и последний дракон бесплатно
    Райя и последний дракон скачать торрент в хорошем качестве
    Райя и последний дракон смотреть онлайн бесплатно в хорошем качестве


    Вы не можете начинать темы
    Вы не можете отвечать на сообщения
    Вы не можете редактировать свои сообщения
    Вы не можете удалять свои сообщения
    Вы не можете голосовать в опросах
    Вы не можете прикреплять файлы к сообщениям
    Вы можете скачивать файлы