Присоединяйтесь к нам в Telegram!, здесь всегда актуальный адрес сайта, оперативная поддержка и многое другое!!

>

5.9

iTunes

7.4

iTunes

9.4

1 сезон

1

7.4

2 сезон

7.2

iTunes

7.3

1 сезон

13

6.1

iTunes

8.3

Пиратка

30

ULTIMATE

pack

9.9

Лицензия

ВАЖНО

ИГРА 18+

pack

7.3

RePack

MK11

7.7

RePack

jed

7.8

RePack

fifa19

8.5

RePack

RDR2

RePack

NEED FOR SPEED™ PAYBACK

5 сезон

9 сезон

Бесстыжие 9 сезон

Все сериалы

все сериалы на PB.wtf

RePack

FAR CRY 5

Anonymous, доброй ночи, мы катастрофически не успеваем собрать деньги на оплату серверов, помогите нам пожалуйста 5,10,15р., для нас важна любая помощь . В качестве благодарности мы отключим Вам всю рекламу на сайте (укажите свой ник в строку Ваше имя)!

×
  
Magnet ссылка

Заложники Марса / Settlers (Уайатт Рокфеллер) [2021 г., фантастика, WEB-DLRip, Дубляж "iTunes"] pb.wtf

Заложники Марса через торрент pb.wtf

Размер: 705 MB | Добавлен: 4 мес. 11 д. назад | Торрент скачан:74 раза
Смотреть онлайн Заложники Марса | Скачать    Ребята, помогите собрать деньги на оплату серверов!!!

25-07-2021 18:26 Заложники Марса Скачать торрент  

Заложники Марса / Settlers
Год выпуска: 2021
Страна: Великобритания / Brittle-Star Pictures, Film Constellation, Jericho Motion Pictures
Жанр: фантастика
Продолжительность: 01:43:31
Перевод: Дубляж (iTunes)

Режиссер: Уайатт Рокфеллер

rating

В ролях: София Бутелла, Джонни Ли Миллер, Нелл Тайгер Фри, Бруклин Принс, Исмаэль Круз, Натали Уолш, Мэттью Ван Лееве

Описание: 2078 год. Жизнь на Марсе стала реальностью. Ремми родилась на этой планете и никогда не была на Земле. Её семья живёт в изолированной колонии, ограниченной кислородным куполом. Но когда на их дом нападают вооруженные захватчики, Ремми вынуждена столкнуться с тем, от чего её уберегали родители, и узнать, что на самом деле скрывает Марс.

Качество: WEB-DLRip
Формат: AVI
Видео кодек: DivX
Аудио кодек: MP3
Видео: 640x272 (2.35:1), 23.976 fps, DivX Codec 4.x ~814 kbps avg, 0.20 bit/pixel
Аудио: 48 kHz, MPEG Layer 3, 2 ch, ~128.00 kbps avg








Общее
Полное имя : G:\ФИЛЬМЫ\Заложники Марса.2021.D.WEB-DLRip.avi
Формат : AVI
Формат/Информация : Audio Video Interleave
Размер файла : 705 Мбайт
Продолжительность : 1 ч. 43 м.
Общий поток : 952 Кбит/сек
Программа кодирования : VirtualDubMod 1.5.10.3 | www.virtualdub-fr.org || (build 2550/release)
Библиотека кодирования : VirtualDubMod build 2550/release

Видео
Идентификатор : 0
Формат : MPEG-4 Visual
Профиль формата : Advanced Simple@L5
Настройки формата : BVOP2
Параметр BVOP формата : 2
Параметр QPel формата : Нет
Параметр GMC формата : Без точки перехода
Параметр матрицы формата : Default (MPEG)
Идентификатор кодека : DIVX
Идентификатор кодека/Информация : Project Mayo
Идентификатор кодека/Подсказка : DivX 4
Продолжительность : 1 ч. 43 м.
Битрейт : 814 Кбит/сек
Ширина : 640 пикселей
Высота : 272 пикселя
Соотношение сторон : 2,35:1
Частота кадров : 23,976 (24000/1001) кадра/сек
Цветовое пространство : YUV
Субдискретизация насыщенности : 4:2:0
Битовая глубина : 8 бит
Тип развёртки : Прогрессивная
Метод сжатия : С потерями
Бит/(Пиксели*Кадры) : 0.195
Размер потока : 603 Мбайт (86%)
Библиотека кодирования : XviD 1.2.1 (UTC 2008-12-04)

Аудио
Идентификатор : 1
Формат : MPEG Audio
Версия формата : Version 1
Профиль формата : Layer 3
Настройки формата : Joint stereo
Идентификатор кодека : 55
Идентификатор кодека/Подсказка : MP3
Продолжительность : 1 ч. 43 м.
Вид битрейта : Постоянный
Битрейт : 128 Кбит/сек
Каналы : 2 канала
Частота : 48,0 КГц
Частота кадров : 41,667 кадра/сек (1152 SPF)
Метод сжатия : С потерями
Размер потока : 94,8 Мбайт (13%)
Выравнивание : Соединение по промежуткам
Продолжительность промежутка : 42 мс. (1,00 видеокадр)
Время предзагрузки промежутка : 504 мс.
Библиотека кодирования : LAME3.99r
Настройки программы : -m j -V 4 -q 2 -lowpass 17 -b 128

Report created by : MediaInfoLib - v21.03
Report created on : UTC 2021-07-25 18:06:09

pb.wtf



Скачать Заложники Марса через торрент https://pic1.kartinco.top/new/img/2021-07/25/qh6m8ps8qgpxqn30iji5hnmsa.jpg Скачать, смотреть онлайн Заложники Марса бесплантно в хорошем качестве Описание: 2078 год. Жизнь на Марсе стала реальностью. Ремми родилась на этой планете и никогда не была на Земле. Её семья живёт в ... 7.8 10 5
Торрент: Зарегистрирован [2021-07-25 18:26] · скачан: 74 раз
Статус: √ проверено
Размер: 705 MB
Как cкачать? Как скачать Заложники Марса через торрент | UTorrent

% Раздел Тема Автор DL S | L
Фильмы (WEB-DL 720p, 1080p) [ 5.69 GB ] Заложники Марса / Поселенцы / Settlers [2021 WEB-DL 1080p] + AVO [А.Важенин [BadBajo] bober100 Скачать
2 | 0
Фильмы 2021 [DVDrip, WEB-DLRip, HDrip] (DUB, MVO) [ 1.46 GB ] Заложники Марса / Поселенцы / Settlers [2021 WEB-DLRip] bober100 Скачать
8 | 0

28-11-2019 20:33  

Отключить всю рекламу на сайте

    Дорогой пользователь! Огромная просьба, поблагодарите релизера, оцените раздачу и оставьте свои комментарий, если Вы скачали Заложники Марса через торрент бесплатно!
    Комментировать посты могут только пользователи прошедшие не сложную регистрацию
    Показать сообщения:    

    Заложники Марса через торрент
    Скачать бесплатно Заложники Марса
    Заложники Марса скачать торрент
    Заложники Марса смотреть онлайн
    Cкачать фильм Заложники Марса бесплатно
    Заложники Марса скачать торрент в хорошем качестве
    Заложники Марса смотреть онлайн бесплатно в хорошем качестве


    Вы не можете начинать темы
    Вы не можете отвечать на сообщения
    Вы не можете редактировать свои сообщения
    Вы не можете удалять свои сообщения
    Вы не можете голосовать в опросах
    Вы не можете прикреплять файлы к сообщениям
    Вы можете скачивать файлы