Присоединяйтесь к нам в Telegram!, здесь всегда актуальный адрес сайта, оперативная поддержка и многое другое!!

>

5.9

iTunes

7.4

iTunes

9.4

1 сезон

1

7.4

2 сезон

7.2

iTunes

7.3

1 сезон

13

6.1

iTunes

8.3

Пиратка

30

ULTIMATE

pack

9.9

Лицензия

ВАЖНО

ИГРА 18+

pack

7.3

RePack

MK11

7.7

RePack

jed

7.8

RePack

fifa19

8.5

RePack

RDR2

RePack

NEED FOR SPEED™ PAYBACK

5 сезон

9 сезон

Бесстыжие 9 сезон

Все сериалы

все сериалы на PB.wtf

RePack

FAR CRY 5

Anonymous, доброй ночи, мы катастрофически не успеваем собрать деньги на оплату серверов, помогите нам пожалуйста 5,10,15р., для нас важна любая помощь . В качестве благодарности мы отключим Вам всю рекламу на сайте (укажите свой ник в строку Ваше имя)!

×
  
Magnet ссылка

Те, кто желает мне смерти / Those Who Wish Me Dead (Тейлор Шеридан) [2021 г., боевик, триллер, драма, HDRip, Дубляж "iTunes"] pb.wtf

Те, кто желает мне смерти через торрент pb.wtf

Раздают: 1 [ 0 KB/s ]
Размер: 712 MB | Добавлен: 4 мес. 9 д. назад | Торрент скачан:24 раза
Смотреть онлайн Те, кто желает мне смерти | Скачать    Ребята, помогите собрать деньги на оплату серверов!!!

27-07-2021 18:13 Те, кто желает мне смерти Скачать торрент  

Те кто желает мне смерти / Those Who Wish Me Dead
Год выпуска: 2021
Страна: Канада, США / BRON Studios, Creative Wealth Media, FinanceFilm Rites
Жанр: боевик, триллер, драма
Продолжительность: 01:39:41
Перевод: Дубляж (iTunes)

Режиссер: Тейлор Шеридан

rating

В ролях: Анджелина Джоли, Финн Литтл, Николас Холт, Эйдан Гиллен, Джон Бернтал, Медина Сенгхоур, Джейк Уэбер, Тайлер Перри, Джеймс Джордан, Тори Киттлз

Описание: Бывшая руководительница бригады пожарных Ханна уже год не может пережить гибель подчинённого во время лесного пожара, а также трёх случайно оказавшихся на местности мальчишек. Теперь её рабочее место — наблюдательная вышка в лесах Монтаны. А в это время обычный бухгалтер, недавно узнавший компрометирующую важных людей информацию, скрывается от киллеров. Вместе с 12-летним сыном он мчит на машине в те же монтанские леса, где брат его покойной жены работает шерифом.

Качество: HDRip
Формат: AVI
Видео кодек: DivX
Аудио кодек: MP3
Видео: 640x272 (2.35:1), 23.976 fps, DivX Codec 4.x ~861 kbps avg, 0.21 bit/pixel
Аудио: 48 kHz, MPEG Layer 3, 2 ch, ~128.00 kbps avg




Общее
Полное имя : G:\ФИЛЬМЫ\Те, кто желает мне смерти.2021.D.HDRip.avi
Формат : AVI
Формат/Информация : Audio Video Interleave
Размер файла : 712 Мбайт
Продолжительность : 1 ч. 39 м.
Общий поток : 999 Кбит/сек
Программа кодирования : VirtualDubMod 1.5.10.3 | www.virtualdub-fr.org || (build 2550/release)
Библиотека кодирования : VirtualDubMod build 2550/release

Видео
Идентификатор : 0
Формат : MPEG-4 Visual
Профиль формата : Advanced Simple@L5
Настройки формата : BVOP2
Параметр BVOP формата : 2
Параметр QPel формата : Нет
Параметр GMC формата : Без точки перехода
Параметр матрицы формата : Default (MPEG)
Идентификатор кодека : DIVX
Идентификатор кодека/Информация : Project Mayo
Идентификатор кодека/Подсказка : DivX 4
Продолжительность : 1 ч. 39 м.
Битрейт : 861 Кбит/сек
Ширина : 640 пикселей
Высота : 272 пикселя
Соотношение сторон : 2,35:1
Частота кадров : 23,976 (24000/1001) кадра/сек
Цветовое пространство : YUV
Субдискретизация насыщенности : 4:2:0
Битовая глубина : 8 бит
Тип развёртки : Прогрессивная
Метод сжатия : С потерями
Бит/(Пиксели*Кадры) : 0.206
Размер потока : 614 Мбайт (86%)
Библиотека кодирования : XviD 1.2.1 (UTC 2008-12-04)

Аудио
Идентификатор : 1
Формат : MPEG Audio
Версия формата : Version 1
Профиль формата : Layer 3
Настройки формата : Joint stereo / MS Stereo
Идентификатор кодека : 55
Идентификатор кодека/Подсказка : MP3
Продолжительность : 1 ч. 39 м.
Вид битрейта : Постоянный
Битрейт : 128 Кбит/сек
Каналы : 2 канала
Частота : 48,0 КГц
Частота кадров : 41,667 кадра/сек (1152 SPF)
Метод сжатия : С потерями
Размер потока : 91,2 Мбайт (13%)
Выравнивание : Соединение по промежуткам
Продолжительность промежутка : 42 мс. (1,00 видеокадр)
Время предзагрузки промежутка : 504 мс.
Библиотека кодирования : LAME3.99r
Настройки программы : -m j -V 4 -q 2 -lowpass 17 -b 128

Report created by : MediaInfoLib - v21.03
Report created on : UTC 2021-07-27 18:00:16

pb.wtf



Скачать Те, кто желает мне смерти через торрент https://pic1.kartinco.top/new/img/2021-07/27/3ckazfrxw78ziz43wh7b4x3m5.jpg Скачать, смотреть онлайн Те, кто желает мне смерти бесплантно в хорошем качестве Описание: Бывшая руководительница бригады пожарных Ханна уже год не может пережить гибель подчинённого во время лесного пожара, а также ... 8 10 2
Торрент: Зарегистрирован [2021-07-27 18:13] · скачан: 24 раз
Статус: √ проверено
Размер: 712 MB
Как cкачать? Как скачать Те, кто желает мне смерти через торрент | UTorrent

% Раздел Тема Автор DL S | L
Фильмы (Blu-ray, BD-Remux, HDDVD) [ 24.53 GB ] Те кто желает мне смерти / Those Who Wish Me Dead [2021 BD Remux 1080p] +MVO [HDRezka Studio] bober100 Скачать
1 | 0
Фильмы [HD 720p, 1080p] (Хороший звук DUB, MVO) [ 3.84 GB ] Те кто желает мне смерти / Those Who Wish Me Dead [2021 BDRip 720p] +MVO [HDRezka Studio] bober100 Скачать
4 | 0
Фильмы [HD 720p, 1080p] (Хороший звук DUB, MVO) [ 8.85 GB ] Те кто желает мне смерти / Those Who Wish Me Dead [2021 BDRip 1080p] +MVO [HDRezka Studio] bober100 Скачать
2 | 0
Фильмы (HD 720p, 1080p) (48-60 fps) [ 3.22 GB ] Те кто желает мне смерти / Those Who Wish Me Dead [2021 WEB-DLRip 720p / 60 FPS ] от R.G. HD-Films slaventi-69 Скачать
2 | 0
Фильмы 2021 [DVDrip, WEB-DLRip, HDrip] (DUB, MVO) [ 1.42 GB ] Те кто желает мне смерти / Those Who Wish Me Dead [2021 BDRip] - Twi7ter Скачать
22 | 0
Ultra HD (UHD: 2K, 4K, 8K) — видео сверхвысокой чёткости [ 13.14 GB ] Те кто желает мне смерти / Those Who Wish Me Dead [2021 UHD WEB-DL 2160p] +MVO [HDRezka Studio] bober100 Скачать
1 | 0
Фильмы 2021 [DVDrip, WEB-DLRip, HDrip] (DUB, MVO) [ 1.46 GB ] Те кто желает мне смерти / Those Who Wish Me Dead [2021 WEB-DLRip] MVO [HDRezka Studio] bober100 Скачать
2 | 0

28-11-2019 20:33  

Отключить всю рекламу на сайте

27-07-2021 22:12 Те, кто желает мне смерти Скачать торрент  

Ради Анжелки гляну.pb.wtf



    Дорогой пользователь! Огромная просьба, поблагодарите релизера, оцените раздачу и оставьте свои комментарий, если Вы скачали Те, кто желает мне смерти через торрент бесплатно!
    Комментировать посты могут только пользователи прошедшие не сложную регистрацию
    Показать сообщения:    

    Те, кто желает мне смерти через торрент
    Скачать бесплатно Те, кто желает мне смерти
    Те, кто желает мне смерти скачать торрент
    Те, кто желает мне смерти смотреть онлайн
    Cкачать фильм Те, кто желает мне смерти бесплатно
    Те, кто желает мне смерти скачать торрент в хорошем качестве
    Те, кто желает мне смерти смотреть онлайн бесплатно в хорошем качестве


    Вы не можете начинать темы
    Вы не можете отвечать на сообщения
    Вы не можете редактировать свои сообщения
    Вы не можете удалять свои сообщения
    Вы не можете голосовать в опросах
    Вы не можете прикреплять файлы к сообщениям
    Вы можете скачивать файлы