Достать ножи: Стеклянная луковица

MVO

Добыча

Дубляж

Уэнсдэй

1 сезон

Тор

Дубляж

13 клиническая

1 сезон

Жестокая ночь

MVO

Одни из нас

1 сезон

Deluxe

pack

Рекомендуем

30

Пиратка

ВАЖНО

ВАЖНО

Ghostwire

Пиратка

jed

RePack

nioh2

RePack

RDR2

RePack

NEED FOR SPEED™ PAYBACK

RePack

скачать торрент

Кинопоиск HD

Острые козырьки 6 сезон

6 сезон

FAR CRY 6

RePack

скачать торрент

Лицензия

скачать торрент

MVO

1

1 сезон

скачать торрент

1 сезон

скачать торрент

Лицензия

  

Коллекция сериалов Marvel / Marvel TV series: Collection [2021 - ...., фантастика, боевик, комедия, приключения , WEB-DLRip - HEVC 1080p 10 bit 60 FPS, Дубляж]

Коллекция сериалов Marvel через торрент pb.wtf

Раздают: 1 [ 0 KB/s ] Качают: 1 [ 0 KB/s ]
Размер: 73.15 GB | Добавлен: 1 мес. 10 д. назад | Торрент скачан:3 раза
| Скачать | Поддержите нас   

27-07-2021 19:30 Коллекция сериалов Marvel Скачать торрент  



Телесериалы киновселенной Marvel — американские супергеройские телевизионные проекты, основанные на персонажах Marvel Comics. Телесериалы входят в хронологию общей вселенной фильмов Marvel Studios или вдохновлены ими. Первый шаг к появлению персонажей на телеэкранах был сделан в 2010 году, после создания подразделения Marvel Television, которое совместно с ABC Studios разработало 12 телесериалов. Эти проекты выходили на разных телеканалах и стриминг-сервисах: ABC, Netflix, Hulu, и Freeform. Основная линейка телесериалов ABC была вдохновлена фильмами и их персонажами, впоследствии эта линейка стала называться «Герои Marvel». Другое ответвление телесериалов от Netflix получило название «Рыцари Marvel», все сериалы были взаимосвязаны. Проекты для подростковой аудитории были созданы платформами Freeform и Hulu и названы «Путешествие через страх». Подразделение Marvel Television было закрыто в декабре 2019 года. В 2018 году Marvel Studios, основная производственная студия, начала создание собственных сериалов для стриминг-сервиса Disney+. По меньшей мере, 9 проектов находятся в различных стадиях производства. Эти сериалы сосредоточены на второстепенных персонажах фильмов, имеют бо́льшие бюджеты (чем проекты Marvel Television), будут напрямую связаны с фильмами и станут официальным каноном киновселенной. После закрытия сериалов от Marvel Television телеканал ABC выразил интерес к совместному производству проектов с Marvel Studios.

WandaVision
«Marvel Studios presents a visionary new age of television»

Информация о фильме:
Название: Ванда/Вижн
Оригинальное название: WandaVision
Год выхода: 2021
Жанр: фантастика, фэнтези, боевик, комедия
Режиссер: Мэтт Шекман
В ролях: Элизабет Олсен, Пол Беттани, Тейона Паррис, Кэтрин Хан, Кэт Деннингс, Рэндолл Пак, Брайан Брайтман, Джолин Парди, Азиф Али, Шэйн Беренг, Фред Меламед
Описание: Ванда и Вижн — молодожены, живущие в идиллическом городке Вествью. Поначалу жизнь героев кажется им идеальной, но постепенно они понимают, что это не так.


Страна: США
Студия: Marvel Studios
Продолжительность: 9 x ~ 00:27:00
Перевод: Дублированный | Flarrow Films
Субтитры: русские | Где тексты, Лебовски?
Навигация по главам: есть
Информация о файле:
Качество: WEB-DLRip - HEVC 1080p Rip by DD2D3
Формат: MKV
Видео: V_MPEGH/ISO/HEVC; 1920x1080 (16:9); 5026 Kbps; 59,940 fps; 0,040 bpp
Аудио: русский; AC3; 320 Kbps; CBR; 2 ch ||
Доп. информация: нет
скриншот   скриншот   скриншот   скриншот   скриншот   скриншот   скриншот   скриншот  

Общее
Уникальный идентификатор : 219720284935546266231790601445342263839 (0xA54C966DEA2EF079A11AB37C7C053A1F)
Полное имя : E:\Marvel TV series Collection (2013 - ......) WEB-DLRip - HEVC 1080p 10 bit 60 FPS\The Marvel Series Collection (Disney+)\Marvel's WandaVision (2021) WEB-DLRip - HEVC 1080p 10 bit 60 FPS\Season 1. Series 1 - 9 of 9.mkv
Формат : Matroska
Версия формата : Version 2
Размер файла : 1 018 Мбайт
Продолжительность : 26 м. 34 с.
Общий поток : 5 358 Кбит/сек
Название фильма : Rip by from DD2D3
Дата кодирования : UTC 2022-05-15 14:03:49
Программа кодирования : mkvmerge v6.9.1 ('Blue Panther') 32bit built on Apr 18 2014 18:15:44
Библиотека кодирования : libebml v1.3.0 + libmatroska v1.4.1
Attachments : poster

Видео
Идентификатор : 1
Формат : HEVC
Формат/Информация : High Efficiency Video Coding
Профиль формата : Main [email protected]@Main
Идентификатор кодека : V_MPEGH/ISO/HEVC
Продолжительность : 26 м. 34 с.
Битрейт : 4 932 Кбит/сек
Ширина : 1 920 пикселей
Высота : 1 080 пикселей
Соотношение сторон : 16:9
Режим частоты кадров : Постоянный
Частота кадров : 59,940 (60000/1001) кадров/сек
Цветовое пространство : YUV
Субдискретизация насыщенности : 4:2:0
Битовая глубина : 10 бит
Бит/(Пиксели*Кадры) : 0.040
Размер потока : 937 Мбайт (92%)
Библиотека кодирования : x265 2.3+33-0b7d54dbb71a87a0:[Windows][MSVC 1800][64 bit] 10bit: KG7x [x265.ru]
Настройки программы : cpuid=1173503 / frame-threads=2 / numa-pools=4 / wpp / no-pmode / no-pme / no-psnr / no-ssim / log-level=2 / input-csp=1 / input-res=1920x1080 / interlace=0 / total-frames=95481 / level-idc=41 / high-tier=1 / uhd-bd=0 / ref=3 / no-allow-non-conformance / no-repeat-headers / annexb / no-aud / no-hrd / info / hash=0 / no-temporal-layers / open-gop / min-keyint=25 / keyint=250 / bframes=4 / b-adapt=2 / b-pyramid / bframe-bias=0 / rc-lookahead=20 / lookahead-slices=6 / scenecut=40 / no-intra-refresh / ctu=64 / min-cu-size=8 / no-rect / no-amp / max-tu-size=32 / tu-inter-depth=1 / tu-intra-depth=1 / limit-tu=0 / rdoq-level=0 / dynamic-rd=0.00 / no-ssim-rd / signhide / no-tskip / nr-intra=0 / nr-inter=0 / no-constrained-intra / strong-intra-smoothing / max-merge=2 / limit-refs=3 / no-limit-modes / me=1 / subme=2 / merange=57 / temporal-mvp / weightp / no-weightb / no-analyze-src-pics / deblock=0:0 / sao / no-sao-non-deblock / rd=3 / no-early-skip / rskip / no-fast-intra / no-tskip-fast / no-cu-lossless / no-b-intra / rdpenalty=0 / psy-rd=2.00 / psy-rdoq=0.00 / no-rd-refine / analysis-mode=0 / no-lossless / cbqpoffs=0 / crqpoffs=0 / rc=abr / bitrate=5000 / qcomp=0.60 / qpstep=4 / stats-write=0 / stats-read=2 / cplxblur=20.0 / qblur=0.5 / ipratio=1.40 / pbratio=1.30 / aq-mode=1 / aq-strength=1.00 / cutree / zone-count=0 / no-strict-cbr / qg-size=32 / no-rc-grain / qpmax=69 / qpmin=0 / sar=1 / overscan=0 / videoformat=5 / range=0 / colorprim=2 / transfer=2 / colormatrix=2 / chromaloc=0 / display-window=0 / max-cll=0,0 / min-luma=0 / max-luma=1023 / log2-max-poc-lsb=8 / vui-timing-info / vui-hrd-info / slices=1 / opt-qp-pps / opt-ref-list-length-pps / no-multi-pass-opt-rps / scenecut-bias=0.05 / no-opt-cu-delta-qp / no-aq-motion / no-hdr / no-hdr-opt / refine-level=5 / no-limit-sao
Default : Да
Forced : Нет
Statistics Tags Issue : mkvmerge v10.0.0 ('To Drown In You') 32bit 2021-07-04 12:18:25 / mkvmerge v6.9.1 ('Blue Panther') 32bit built on Apr 18 2014 18:15:44 2022-05-15 14:03:49
FromStats_BitRate : 5026981
FromStats_Duration : 00:26:32.942000000
FromStats_FrameCount : 95481
FromStats_StreamSize : 1000961270

Аудио
Идентификатор : 2
Формат : AC-3
Формат/Информация : Audio Coding 3
Коммерческое название : Dolby Digital
Идентификатор кодека : A_AC3
Продолжительность : 26 м. 34 с.
Вид битрейта : Постоянный
Битрейт : 320 Кбит/сек
Каналы : 2 канала
Channel layout : L R
Частота : 48,0 КГц
Частота кадров : 31,250 кадров/сек (1536 SPF)
Метод сжатия : С потерями
Размер потока : 60,8 Мбайт (6%)
Заголовок : Flarrow Films
Язык : Russian
Service kind : Complete Main
Default : Нет
Forced : Нет

Текст
Идентификатор : 3
Формат : UTF-8
Идентификатор кодека : S_TEXT/UTF8
Идентификатор кодека/Информация : UTF-8 Plain Text
Заголовок : Где тексты, Лебовски?
Язык : Russian
Default : Нет
Forced : Нет
Statistics Tags Issue : mkvmerge v52.0.0 ('Secret For The Mad') 64-bit 2021-01-18 05:09:57 / mkvmerge v6.9.1 ('Blue Panther') 32bit built on Apr 18 2014 18:15:44 2022-05-15 14:03:49
FromStats_BitRate : 143
FromStats_Duration : 00:21:03.430000000
FromStats_FrameCount : 424
FromStats_StreamSize : 22716


The Falcon and the Winter Soldier

Информация о фильме:
Название: Сокол и Зимний Солдат
Оригинальное название: The Falcon and the Winter Soldier
Год выхода: 2021
Жанр: фантастика, фэнтези, боевик, комедия
Режиссер: Кари Скогланд
В ролях: Энтони Маки, Себастьян Стэн, Даниэль Брюль, Десмонд Чайм, Джон Геттье, Мики Исикава, Эрин Келлиман, Эдеперо Одуйе, Уайатт Расселл, Эмили ВанКэмп и др.
Описание: Сэм Уилсон примерит костюм нового Капитана Америка и попытается справиться с миссией, возложенной на него Стивом Роджерсом. Баки, в свою очередь, готов вновь стать частью общества и поближе познакомиться со всем, что предлагает современный мир.


Страна: США
Студия: Marvel Studios
Продолжительность: 6 x ~ 00:50:00
Перевод: Дублированный | Flarrow Films
Субтитры: русские | Где тексты, Лебовски?
Навигация по главам: нет
Информация о файле:
Качество: WEB-DLRip - HEVC 1080p Rip by DD2D3
Формат: MKV
Видео: V_MPEGH/ISO/HEVC; 1920x804 (2.40:1); 3609 Kbps; 60 fps; 0,039 bpp
Аудио: русский; AC3; 320 Kbps; CBR; 2 ch ||
Доп. информация: нет
скриншот   скриншот   скриншот   скриншот   скриншот   скриншот   скриншот   скриншот  

Общее
Уникальный идентификатор : 246767210700083447488107843745461490929 (0xB9A5A2D3634112418512B45B8E7AD4F1)
Полное имя : E:\Marvel TV series Collection (2013 - ......) WEB-DLRip - HEVC 1080p 10 bit 60 FPS\The Marvel Series Collection (Disney+)\Marvel's The Falcon and the Winter Soldier (2021) WEB-DLRip - HEVC 1080p 10 bit 60 FPS\Season 1. Series 1 - 6 of 6.mkv
Формат : Matroska
Версия формата : Version 2
Размер файла : 1,32 Гбайт
Продолжительность : 47 м. 16 с.
Общий поток : 4 010 Кбит/сек
Название фильма : Rip by from DD2D3
Дата кодирования : UTC 2022-05-15 13:43:31
Программа кодирования : mkvmerge v6.9.1 ('Blue Panther') 32bit built on Apr 18 2014 18:15:44
Библиотека кодирования : libebml v1.3.0 + libmatroska v1.4.1
Attachments : poster

Видео
Идентификатор : 1
Формат : HEVC
Формат/Информация : High Efficiency Video Coding
Профиль формата : Main [email protected]@Main
Идентификатор кодека : V_MPEGH/ISO/HEVC
Продолжительность : 47 м. 16 с.
Битрейт : 3 610 Кбит/сек
Ширина : 1 920 пикселей
Высота : 804 пикселя
Соотношение сторон : 2,40:1
Режим частоты кадров : Постоянный
Частота кадров : 60,000 кадров/сек
Цветовое пространство : YUV
Субдискретизация насыщенности : 4:2:0
Битовая глубина : 10 бит
Бит/(Пиксели*Кадры) : 0.039
Размер потока : 1,19 Гбайт (90%)
Библиотека кодирования : x265 2.3+33-0b7d54dbb71a87a0:[Windows][MSVC 1800][64 bit] 10bit: KG7x [x265.ru]
Настройки программы : cpuid=1173503 / frame-threads=2 / numa-pools=4 / wpp / no-pmode / no-pme / no-psnr / no-ssim / log-level=2 / input-csp=1 / input-res=1920x804 / interlace=0 / total-frames=170148 / level-idc=41 / high-tier=1 / uhd-bd=0 / ref=3 / no-allow-non-conformance / no-repeat-headers / annexb / no-aud / no-hrd / info / hash=0 / no-temporal-layers / open-gop / min-keyint=25 / keyint=250 / bframes=4 / b-adapt=2 / b-pyramid / bframe-bias=0 / rc-lookahead=20 / lookahead-slices=5 / scenecut=40 / no-intra-refresh / ctu=64 / min-cu-size=8 / no-rect / no-amp / max-tu-size=32 / tu-inter-depth=1 / tu-intra-depth=1 / limit-tu=0 / rdoq-level=0 / dynamic-rd=0.00 / no-ssim-rd / signhide / no-tskip / nr-intra=0 / nr-inter=0 / no-constrained-intra / strong-intra-smoothing / max-merge=2 / limit-refs=3 / no-limit-modes / me=1 / subme=2 / merange=57 / temporal-mvp / weightp / no-weightb / no-analyze-src-pics / deblock=0:0 / sao / no-sao-non-deblock / rd=3 / no-early-skip / rskip / no-fast-intra / no-tskip-fast / no-cu-lossless / no-b-intra / rdpenalty=0 / psy-rd=2.00 / psy-rdoq=0.00 / no-rd-refine / analysis-mode=0 / no-lossless / cbqpoffs=0 / crqpoffs=0 / rc=abr / bitrate=3700 / qcomp=0.60 / qpstep=4 / stats-write=0 / stats-read=2 / cplxblur=20.0 / qblur=0.5 / ipratio=1.40 / pbratio=1.30 / aq-mode=1 / aq-strength=1.00 / cutree / zone-count=0 / no-strict-cbr / qg-size=32 / no-rc-grain / qpmax=69 / qpmin=0 / sar=1 / overscan=0 / videoformat=5 / range=0 / colorprim=2 / transfer=2 / colormatrix=2 / chromaloc=0 / display-window=0 / max-cll=0,0 / min-luma=0 / max-luma=1023 / log2-max-poc-lsb=8 / vui-timing-info / vui-hrd-info / slices=1 / opt-qp-pps / opt-ref-list-length-pps / no-multi-pass-opt-rps / scenecut-bias=0.05 / no-opt-cu-delta-qp / no-aq-motion / no-hdr / no-hdr-opt / refine-level=5 / no-limit-sao
Default : Да
Forced : Нет
Statistics Tags Issue : mkvmerge v10.0.0 ('To Drown In You') 32bit 2021-07-04 12:38:19 / mkvmerge v6.9.1 ('Blue Panther') 32bit built on Apr 18 2014 18:15:44 2022-05-15 13:43:31
FromStats_BitRate : 3681592
FromStats_Duration : 00:47:15.800000000
FromStats_FrameCount : 170148
FromStats_StreamSize : 1305032611

Аудио
Идентификатор : 2
Формат : AC-3
Формат/Информация : Audio Coding 3
Коммерческое название : Dolby Digital
Идентификатор кодека : A_AC3
Продолжительность : 47 м. 16 с.
Вид битрейта : Постоянный
Битрейт : 320 Кбит/сек
Каналы : 2 канала
Channel layout : L R
Частота : 48,0 КГц
Частота кадров : 31,250 кадров/сек (1536 SPF)
Метод сжатия : С потерями
Размер потока : 108 Мбайт (8%)
Заголовок : Flarrow Films
Язык : Russian
Service kind : Complete Main
Default : Да
Forced : Нет

Текст
Идентификатор : 3
Формат : UTF-8
Идентификатор кодека : S_TEXT/UTF8
Идентификатор кодека/Информация : UTF-8 Plain Text
Заголовок : Где тексты, Лебовски?
Язык : Russian
Default : Нет
Forced : Нет
Statistics Tags Issue : mkvmerge v55.0.0 ('Waiting For Space') 64-bit 2021-04-02 11:05:13 / mkvmerge v6.9.1 ('Blue Panther') 32bit built on Apr 18 2014 18:15:44 2022-05-15 13:43:31
FromStats_BitRate : 101
FromStats_Duration : 00:41:11.515000000
FromStats_FrameCount : 566
FromStats_StreamSize : 31316


Marvel's Loki

Информация о фильме:
Название: Локи
Оригинальное название: Marvel's Loki
Год выхода: 2021
Жанр: фантастика, фэнтези, боевик, комедия
Режиссер: Кейт Херрон
В ролях: Том Хиддлстон, Софи Ди Мартино, Ричард Э. Грант, Гугу Эмбата-Ро, Вунми Моссаку, Оуэн Уилсон, Эрика Коулмэн, Саша Лэйн, Джон Ливайн, Люсиус Бастон мл.
Описание: Локи попадает в таинственную организацию «Управление временными изменениями» после того, как он украл Тессеракт, и путешествует во времени, меняя историю.


Страна: США
Студия: Marvel Studios
Продолжительность: 6 x ~ 00:50:00
Перевод: Дублированный | Flarrow Films
Субтитры: русские | Где тексты, Лебовски?
Навигация по главам: нет
Информация о файле:
Качество: WEB-DLRip - HEVC 1080p Rip by DD2D3
Формат: MKV
Видео: V_MPEGH/ISO/HEVC; 1920x804 (2.40:1); 3591 Kbps; 60 fps; 0,039 bpp
Аудио: русский; AC3; 320 Kbps; CBR; 2 ch ||
Доп. информация: нет
скриншот   скриншот   скриншот   скриншот   скриншот   скриншот   скриншот   скриншот  

Общее
Уникальный идентификатор : 185106285574280833376943326141844115756 (0x8B422C8000ED4A38B5F455CD9175512C)
Полное имя : E:\Marvel TV series Collection (2013 - ......) WEB-DLRip - HEVC 1080p 10 bit 60 FPS\The Marvel Series Collection (Disney+)\Marvel's Loki (2021) WEB-DLRip - HEVC 1080p 10 bit 60 FPS\Season 1. Series 1 - 6 of 6.mkv
Формат : Matroska
Версия формата : Version 2
Размер файла : 1,44 Гбайт
Продолжительность : 51 м. 30 с.
Общий поток : 3 991 Кбит/сек
Название фильма : Rip by from DD2D3
Дата кодирования : UTC 2022-05-15 13:25:14
Программа кодирования : mkvmerge v6.9.1 ('Blue Panther') 32bit built on Apr 18 2014 18:15:44
Библиотека кодирования : libebml v1.3.0 + libmatroska v1.4.1
Attachments : poster

Видео
Идентификатор : 1
Формат : HEVC
Формат/Информация : High Efficiency Video Coding
Профиль формата : Main [email protected]@Main
Идентификатор кодека : V_MPEGH/ISO/HEVC
Продолжительность : 51 м. 30 с.
Битрейт : 3 592 Кбит/сек
Ширина : 1 920 пикселей
Высота : 804 пикселя
Соотношение сторон : 2,40:1
Режим частоты кадров : Постоянный
Частота кадров : 60,000 кадров/сек
Цветовое пространство : YUV
Субдискретизация насыщенности : 4:2:0
Битовая глубина : 10 бит
Бит/(Пиксели*Кадры) : 0.039
Размер потока : 1,29 Гбайт (90%)
Библиотека кодирования : x265 2.3+33-0b7d54dbb71a87a0:[Windows][MSVC 1800][64 bit] 10bit: KG7x [x265.ru]
Настройки программы : cpuid=1173503 / frame-threads=2 / numa-pools=4 / wpp / no-pmode / no-pme / no-psnr / no-ssim / log-level=2 / input-csp=1 / input-res=1920x804 / interlace=0 / total-frames=185428 / level-idc=41 / high-tier=1 / uhd-bd=0 / ref=3 / no-allow-non-conformance / no-repeat-headers / annexb / no-aud / no-hrd / info / hash=0 / no-temporal-layers / open-gop / min-keyint=25 / keyint=250 / bframes=4 / b-adapt=0 / b-pyramid / bframe-bias=0 / rc-lookahead=15 / lookahead-slices=5 / scenecut=40 / no-intra-refresh / ctu=64 / min-cu-size=8 / no-rect / no-amp / max-tu-size=32 / tu-inter-depth=1 / tu-intra-depth=1 / limit-tu=0 / rdoq-level=0 / dynamic-rd=0.00 / no-ssim-rd / signhide / no-tskip / nr-intra=0 / nr-inter=0 / no-constrained-intra / strong-intra-smoothing / max-merge=2 / limit-refs=3 / no-limit-modes / me=1 / subme=2 / merange=57 / temporal-mvp / weightp / no-weightb / no-analyze-src-pics / deblock=0:0 / sao / no-sao-non-deblock / rd=2 / no-early-skip / rskip / fast-intra / no-tskip-fast / no-cu-lossless / no-b-intra / rdpenalty=0 / psy-rd=2.00 / psy-rdoq=0.00 / no-rd-refine / analysis-mode=0 / no-lossless / cbqpoffs=0 / crqpoffs=0 / rc=abr / bitrate=3700 / qcomp=0.60 / qpstep=4 / stats-write=0 / stats-read=2 / cplxblur=20.0 / qblur=0.5 / ipratio=1.40 / pbratio=1.30 / aq-mode=1 / aq-strength=1.00 / cutree / zone-count=0 / no-strict-cbr / qg-size=32 / no-rc-grain / qpmax=69 / qpmin=0 / sar=1 / overscan=0 / videoformat=5 / range=0 / colorprim=2 / transfer=2 / colormatrix=2 / chromaloc=0 / display-window=0 / max-cll=0,0 / min-luma=0 / max-luma=1023 / log2-max-poc-lsb=8 / vui-timing-info / vui-hrd-info / slices=1 / opt-qp-pps / opt-ref-list-length-pps / no-multi-pass-opt-rps / scenecut-bias=0.05 / no-opt-cu-delta-qp / no-aq-motion / no-hdr / no-hdr-opt / refine-level=5 / no-limit-sao
Default : Да
Forced : Нет
Statistics Tags Issue : mkvmerge v10.0.0 ('To Drown In You') 32bit 2021-07-04 12:13:20 / mkvmerge v6.9.1 ('Blue Panther') 32bit built on Apr 18 2014 18:15:44 2022-05-15 13:25:14
FromStats_BitRate : 3668867
FromStats_Duration : 00:51:30.467000000
FromStats_FrameCount : 185428
FromStats_StreamSize : 1417314292

Аудио
Идентификатор : 2
Формат : AC-3
Формат/Информация : Audio Coding 3
Коммерческое название : Dolby Digital
Идентификатор кодека : A_AC3
Продолжительность : 51 м. 30 с.
Вид битрейта : Постоянный
Битрейт : 320 Кбит/сек
Каналы : 2 канала
Channel layout : L R
Частота : 44,1 КГц
Частота кадров : 28,711 кадров/сек (1536 SPF)
Метод сжатия : С потерями
Задержка видео : 3 с. 0 мс.
Размер потока : 118 Мбайт (8%)
Заголовок : Flarrow Films
Язык : Russian
Service kind : Complete Main
Default : Да
Forced : Нет

Текст
Идентификатор : 3
Формат : UTF-8
Идентификатор кодека : S_TEXT/UTF8
Идентификатор кодека/Информация : UTF-8 Plain Text
Заголовок : Где тексты, Лебовски?
Язык : Russian
Default : Нет
Forced : Нет
Statistics Tags Issue : mkvmerge v64.0.0 ('Willows') 64-bit 2022-01-14 11:56:05 / mkvmerge v6.9.1 ('Blue Panther') 32bit built on Apr 18 2014 18:15:44 2022-05-15 13:25:14
FromStats_BitRate : 85
FromStats_Duration : 00:50:13.958000000
FromStats_FrameCount : 584
FromStats_StreamSize : 32108

What If
«Enter the Multiverse of infinite possibilities»

Информация о фильме:
Название: Что, если...?
Оригинальное название: What If
Год выхода: 2021
Жанр: фантастика, фэнтези, боевик, комедия
Режиссер: Брайан Эндрюс
В ролях: Джеффри Райт, Чэдвик Боузмэн, Хейли Этвелл, Доминик Купер, Шон Ганн, Джимон Хонсу, Сэмюэл Л. Джексон, Тоби Джонс, Нил МакДонаф, Майкл Рукер
Описание: Создатели сериала представляют, что будет, если изменить некоторые важные моменты из жизни персонажей Marvel.


Страна: США
Студия: Marvel Studios
Продолжительность: 9 x ~ 00:30:00
Перевод: Дублированный | Flarrow Films
Субтитры: русские | Где тексты, Лебовски?
Навигация по главам: есть
Информация о файле:
Качество: WEB-DLRip - HEVC 1080p Rip by DD2D3
Формат: MKV
Видео: V_MPEGH/ISO/HEVC; 1920x872 (2.2:1); 3924 Kbps; 60 fps; 0,039 bpp
Аудио: русский; AC3; 320 Kbps; CBR; 2 ch ||
Доп. информация: нет
скриншот  скриншот  скриншот  скриншот  

Общее
Уникальный идентификатор : 208682200967226959608287973437767745472 (0x9CFEBADF5618D21E9D3FEDB9DFC4FFC0)
Полное имя : E:\Marvel TV series Collection (2013 - ......) WEB-DLRip - HEVC 1080p 10 bit 60 FPS\The Marvel Series Collection (Disney+)\Marvel's What If (2021) WEB-DLRip - HEVC 1080p 10 bit 60 FPS\Season 1. Series 1 - 9 of 9.mkv
Формат : Matroska
Версия формата : Version 2
Размер файла : 967 Мбайт
Продолжительность : 31 м. 12 с.
Общий поток : 4 330 Кбит/сек
Название фильма : Rip by from DD2D3
Дата кодирования : UTC 2022-05-15 14:43:42
Программа кодирования : mkvmerge v6.9.1 ('Blue Panther') 32bit built on Apr 18 2014 18:15:44
Библиотека кодирования : libebml v1.3.0 + libmatroska v1.4.1
Attachments : poster

Видео
Идентификатор : 1
Формат : HEVC
Формат/Информация : High Efficiency Video Coding
Профиль формата : Main [email protected]@Main
Идентификатор кодека : V_MPEGH/ISO/HEVC
Продолжительность : 31 м. 12 с.
Битрейт : 3 924 Кбит/сек
Ширина : 1 920 пикселей
Высота : 872 пикселя
Соотношение сторон : 2,2:1
Режим частоты кадров : Постоянный
Частота кадров : 60,000 кадров/сек
Цветовое пространство : YUV
Субдискретизация насыщенности : 4:2:0
Битовая глубина : 10 бит
Бит/(Пиксели*Кадры) : 0.039
Размер потока : 876 Мбайт (91%)
Библиотека кодирования : x265 2.3+33-0b7d54dbb71a87a0:[Windows][MSVC 1800][64 bit] 10bit: KG7x [x265.ru]
Настройки программы : cpuid=1173503 / frame-threads=2 / numa-pools=4 / wpp / no-pmode / pme / no-psnr / no-ssim / log-level=2 / input-csp=1 / input-res=1920x872 / interlace=0 / total-frames=112371 / level-idc=41 / high-tier=1 / uhd-bd=0 / ref=3 / no-allow-non-conformance / no-repeat-headers / annexb / no-aud / no-hrd / info / hash=0 / no-temporal-layers / open-gop / min-keyint=25 / keyint=250 / bframes=4 / b-adapt=2 / b-pyramid / bframe-bias=0 / rc-lookahead=20 / lookahead-slices=5 / scenecut=40 / no-intra-refresh / ctu=64 / min-cu-size=8 / no-rect / no-amp / max-tu-size=32 / tu-inter-depth=1 / tu-intra-depth=1 / limit-tu=0 / rdoq-level=0 / dynamic-rd=0.00 / no-ssim-rd / signhide / no-tskip / nr-intra=0 / nr-inter=0 / no-constrained-intra / strong-intra-smoothing / max-merge=2 / limit-refs=3 / no-limit-modes / me=1 / subme=2 / merange=57 / temporal-mvp / weightp / no-weightb / no-analyze-src-pics / deblock=0:0 / sao / no-sao-non-deblock / rd=3 / no-early-skip / rskip / no-fast-intra / no-tskip-fast / no-cu-lossless / no-b-intra / rdpenalty=0 / psy-rd=2.00 / psy-rdoq=0.00 / no-rd-refine / analysis-mode=0 / no-lossless / cbqpoffs=0 / crqpoffs=0 / rc=abr / bitrate=4000 / qcomp=0.60 / qpstep=4 / stats-write=0 / stats-read=2 / cplxblur=20.0 / qblur=0.5 / ipratio=1.40 / pbratio=1.30 / aq-mode=1 / aq-strength=1.00 / cutree / zone-count=0 / no-strict-cbr / qg-size=32 / no-rc-grain / qpmax=69 / qpmin=0 / sar=1 / overscan=0 / videoformat=5 / range=0 / colorprim=2 / transfer=2 / colormatrix=2 / chromaloc=0 / display-window=0 / max-cll=0,0 / min-luma=0 / max-luma=1023 / log2-max-poc-lsb=8 / vui-timing-info / vui-hrd-info / slices=1 / opt-qp-pps / opt-ref-list-length-pps / no-multi-pass-opt-rps / scenecut-bias=0.05 / no-opt-cu-delta-qp / no-aq-motion / no-hdr / no-hdr-opt / refine-level=5 / no-limit-sao
Default : Да
Forced : Нет
Statistics Tags Issue : mkvmerge v10.0.0 ('To Drown In You') 32bit 2021-08-23 15:15:18 / mkvmerge v6.9.1 ('Blue Panther') 32bit built on Apr 18 2014 18:15:44 2022-05-15 14:43:42
FromStats_BitRate : 3997877
FromStats_Duration : 00:31:12.850000000
FromStats_FrameCount : 112371
FromStats_StreamSize : 935928163

Аудио
Идентификатор : 2
Формат : AC-3
Формат/Информация : Audio Coding 3
Коммерческое название : Dolby Digital
Идентификатор кодека : A_AC3
Продолжительность : 31 м. 12 с.
Вид битрейта : Постоянный
Битрейт : 320 Кбит/сек
Каналы : 2 канала
Channel layout : L R
Частота : 48,0 КГц
Частота кадров : 31,250 кадров/сек (1536 SPF)
Метод сжатия : С потерями
Размер потока : 71,4 Мбайт (7%)
Заголовок : Flarrow Films
Язык : Russian
Service kind : Complete Main
Default : Да
Forced : Нет

Текст
Идентификатор : 3
Формат : UTF-8
Идентификатор кодека : S_TEXT/UTF8
Идентификатор кодека/Информация : UTF-8 Plain Text
Заголовок : Где тексты, Лебовски?
Язык : Russian
Default : Нет
Forced : Нет
Statistics Tags Issue : mkvmerge v64.0.0 ('Willows') 64-bit 2022-01-04 13:46:37 / mkvmerge v6.9.1 ('Blue Panther') 32bit built on Apr 18 2014 18:15:44 2022-05-15 14:43:42
FromStats_BitRate : 100
FromStats_Duration : 00:28:24.542000000
FromStats_FrameCount : 324
FromStats_StreamSize : 21476

Меню
00:29:58.000 : en:Credits

Hawkeye
«This Holiday Season, The Best Gifts Come with a Bow»

Информация о фильме:
Название: Соколиный глаз
Оригинальное название: Hawkeye
Год выхода: 2021
Жанр: фантастика, боевик, драма, криминал, детектив, приключения
Режиссер: Берт, Кэти Эллвуд, Риз Томас
В ролях: Джереми Реннер, Хейли Стайнфелд, Тони Далтон, Вера Фармига, Линда Карделлини, Алаква Кокс, Алекс Паунович, Фра Фи, Ава Руссо, Петр Адамчик и др.
Описание: Соколиный Глаз готов уйти на покой, но сперва он должен найти себе подходящую замену, поэтому начинает тренировать нового Соколиного Глаза — молодую Кейт Бишоп. Бартон должен научить Кейт, как быть супергероем без суперспособностей и спасать людей, полагаясь исключительно на свои навыки, смекалку и меткость.


Страна: США
Студия: Marvel Studios
Продолжительность: 5 x ~ 00:50:00
Перевод: Дублированный | Flarrow Films
Субтитры: русские | Где тексты, Лебовски?
Навигация по главам: есть
Информация о файле:
Качество: WEB-DLRip - HEVC 1080p Rip by DD2D3
Формат: MKV
Видео: V_MPEGH/ISO/HEVC; 1920x804 (2.40:1); 3735 Kbps; 60 fps; 0,040 bpp
Аудио: русский; AC3; 320 Kbps; CBR; 2 ch ||
Доп. информация: нет
скриншот  скриншот  скриншот  скриншот  скриншот  

Общее
Уникальный идентификатор : 241587003307003512524380236200622659894 (0xB5BFF6E1E4F17CF3BBF9D9D7108B9936)
Полное имя : E:\Marvel TV series Collection (2013 - ......) WEB-DLRip - HEVC 1080p 10 bit 60 FPS\The Marvel Series Collection (Disney+)\Marvel's Hawkeye (2021) WEB-DLRip - HEVC 1080p 10 bit 60 FPS\Season 1. Series 1 - 6 of 6.mkv
Формат : Matroska
Версия формата : Version 2
Размер файла : 1,37 Гбайт
Продолжительность : 47 м. 21 с.
Общий поток : 4 138 Кбит/сек
Название фильма : Rip by from DD2D3
Дата кодирования : UTC 2022-05-15 13:11:06
Программа кодирования : mkvmerge v6.9.1 ('Blue Panther') 32bit built on Apr 18 2014 18:15:44
Библиотека кодирования : libebml v1.3.0 + libmatroska v1.4.1
Attachments : poster

Видео
Идентификатор : 1
Формат : HEVC
Формат/Информация : High Efficiency Video Coding
Профиль формата : Main [email protected]@Main
Идентификатор кодека : V_MPEGH/ISO/HEVC
Продолжительность : 47 м. 21 с.
Битрейт : 3 735 Кбит/сек
Ширина : 1 920 пикселей
Высота : 804 пикселя
Соотношение сторон : 2,40:1
Режим частоты кадров : Постоянный
Частота кадров : 60,000 кадров/сек
Цветовое пространство : YUV
Субдискретизация насыщенности : 4:2:0
Битовая глубина : 10 бит
Бит/(Пиксели*Кадры) : 0.040
Размер потока : 1,24 Гбайт (90%)
Библиотека кодирования : x265 3.5+10-82786fccc:[Windows][GCC 11.1.0][64 bit] 10bit
Настройки программы : cpuid=1111039 / frame-threads=2 / numa-pools=4 / wpp / no-pmode / no-pme / no-psnr / no-ssim / log-level=2 / input-csp=1 / input-res=1920x804 / interlace=0 / total-frames=170466 / level-idc=41 / high-tier=1 / uhd-bd=0 / ref=3 / no-allow-non-conformance / no-repeat-headers / annexb / no-aud / no-eob / no-eos / no-hrd / info / hash=0 / no-temporal-layers / open-gop / min-keyint=25 / keyint=250 / gop-lookahead=0 / bframes=4 / b-adapt=2 / b-pyramid / bframe-bias=0 / rc-lookahead=20 / lookahead-slices=5 / scenecut=40 / hist-scenecut=0 / radl=0 / no-splice / no-intra-refresh / ctu=64 / min-cu-size=8 / no-rect / no-amp / max-tu-size=32 / tu-inter-depth=1 / tu-intra-depth=1 / limit-tu=0 / rdoq-level=0 / dynamic-rd=0.00 / no-ssim-rd / signhide / no-tskip / nr-intra=0 / nr-inter=0 / no-constrained-intra / strong-intra-smoothing / max-merge=3 / limit-refs=1 / no-limit-modes / me=2 / subme=5 / merange=57 / temporal-mvp / no-frame-dup / no-hme / weightp / no-weightb / no-analyze-src-pics / deblock=0:0 / sao / no-sao-non-deblock / rd=3 / selective-sao=4 / early-skip / rskip / no-fast-intra / no-tskip-fast / no-cu-lossless / b-intra / no-splitrd-skip / rdpenalty=0 / psy-rd=2.00 / psy-rdoq=0.00 / no-rd-refine / no-lossless / cbqpoffs=0 / crqpoffs=0 / rc=abr / bitrate=3800 / qcomp=0.60 / qpstep=4 / stats-write=0 / stats-read=2 / cplxblur=20.0 / qblur=0.5 / ipratio=1.40 / pbratio=1.30 / aq-mode=2 / aq-strength=1.00 / cutree / zone-count=0 / no-strict-cbr / qg-size=32 / no-rc-grain / qpmax=69 / qpmin=0 / no-const-vbv / sar=1 / overscan=0 / videoformat=5 / range=0 / colorprim=2 / transfer=2 / colormatrix=2 / chromaloc=0 / display-window=0 / cll=0,0 / min-luma=0 / max-luma=1023 / log2-max-poc-lsb=8 / vui-timing-info / vui-hrd-info / slices=1 / no-opt-qp-pps / no-opt-ref-list-length-pps / no-multi-pass-opt-rps / scenecut-bias=0.05 / hist-threshold=0.03 / no-opt-cu-delta-qp / no-aq-motion / no-hdr10 / no-hdr10-opt / no-dhdr10-opt / no-idr-recovery-sei / analysis-reuse-level=0 / analysis-save-reuse-level=0 / analysis-load-reuse-level=0 / scale-factor=0 / refine-intra=0 / refine-inter=0 / refine-mv=1 / refine-ctu-distortion=0 / no-limit-sao / ctu-info=0 / no-lowpass-dct / refine-analysis-type=0 / copy-pic=1 / max-ausize-factor=1.0 / no-dynamic-refine / no-single-sei / no-hevc-aq / no-svt / no-field / qp-adaptation-range=1.00 / scenecut-aware-qp=0conformance-window-offsets / right=0 / bottom=0 / decoder-max-rate=0 / no-vbv-live-multi-pass
Default : Да
Forced : Нет

Аудио
Идентификатор : 2
Формат : AC-3
Формат/Информация : Audio Coding 3
Коммерческое название : Dolby Digital
Идентификатор кодека : A_AC3
Продолжительность : 47 м. 21 с.
Вид битрейта : Постоянный
Битрейт : 320 Кбит/сек
Каналы : 2 канала
Channel layout : L R
Частота : 48,0 КГц
Частота кадров : 31,250 кадров/сек (1536 SPF)
Метод сжатия : С потерями
Размер потока : 108 Мбайт (8%)
Заголовок : Flarrow Films
Service kind : Complete Main
Default : Да
Forced : Нет

Текст
Идентификатор : 3
Формат : UTF-8
Идентификатор кодека : S_TEXT/UTF8
Идентификатор кодека/Информация : UTF-8 Plain Text
Заголовок : Где тексты, Лебовски?
Язык : Russian
Default : Нет
Forced : Нет
Statistics Tags Issue : mkvmerge v64.0.0 ('Willows') 64-bit 2022-01-07 07:24:28 / mkvmerge v6.9.1 ('Blue Panther') 32bit built on Apr 18 2014 18:15:44 2022-05-15 13:11:06
FromStats_BitRate : 76
FromStats_Duration : 00:43:58.750000000
FromStats_FrameCount : 496
FromStats_StreamSize : 25233

Меню
00:45:30.417 : en:Credits

Moon Knight

Информация о фильме:
Название: Лунный рыцарь
Оригинальное название: Moon Knight
Год выхода: 2021
Жанр: фантастика, боевик, приключения
Режиссер: Джастин Бенсон, Мохамед Диаб, Аарон Мурхед
В ролях: Оскар Айзек, Итан Хоук, May Calamawy, Гаспар Ульель, Ф. Мюррэй Абрахам, Фернанда Андраде, София Асир, Диана Бермудес, Энн Акин, Рей Лукас
Описание: Бывший морпех, страдающий от диссоциативного расстройства, внезапно получает Влacть и силы египетского Бога Луны.


Страна: США
Студия: Marvel Studios
Продолжительность: 6 x ~ 00:45:32
Перевод: Дублированный | Flarrow Films
Перевод: Профессиональный многоголосый закадровый | Red Head Sound
Субтитры: русские | Где тексты, Лебовски?
Навигация по главам: есть
Информация о файле:
Качество: WEB-DLRip - HEVC 1080p Rip by DD2D3
Формат: MKV
Видео: V_MPEGH/ISO/HEVC; 1920x808 (2.40:1); 3664 Kbps; 60 fps; 0,039 bpp
Аудио: русский; AC3; 320 Kbps; CBR; 2 ch ||
Аудио: русский; AC3; 256 Kbps; CBR; 2 ch ||
Доп. информация: нет



Ms. Marvel

Информация о фильме:
Название: Мисс Марвел
Оригинальное название: Ms. Marvel
Год выхода: 2022
Жанр: фантастика, фэнтези, боевик, комедия
Режиссер: Адиль Эль Арби, Билал Фалла, Мира Менон
В ролях: Иман Веллани, Мэтт Линтц, Зенобия Шрофф, Ясмин Флетчер, Нимра Буча, Алисия Райнер, Анджали Бимани, Мохан Капур, Риши Шах, Лорел Марсден
Описание: Американка пакистанского происхождения и мусульманка из Джерси Камала Хан обрела суперспособности после воздействия Тумана Терригена. Выпущенный правителем сверхлюдей Чёрным Громом он пробудил в людях древние гены. В результате Камала получила способность растягивать своё тело и менять внешний облик.


Страна: США
Студия: Marvel Studios
Продолжительность: 6 x ~ 00:46:00
Перевод: Дублированный | Flarrow Films
Перевод: Профессиональный многоголосый закадровый | Red Head Sound
Субтитры: русские | Где тексты, Лебовски?
Навигация по главам: есть
Информация о файле:
Качество: WEB-DLRip - HEVC 1080p Rip by DD2D3
Формат: MKV
Видео: V_MPEGH/ISO/HEVC; 1920x808 (2.40:1); 3447 Kbps; 60 fps; 0,037 bpp
Аудио: русский; AC3; 192 Kbps; CBR; 2 ch ||
Аудио: русский; AC3; 384 Kbps; CBR; 2 ch ||
Доп. информация: нет

Общее
Уникальный идентификатор : 182302618255895228585351706691909069935 (0x8926350762542E4E8DD2CA3EB5622C6F)
Полное имя : E:\Marvel Studios Series (2021 - ......) WEB-DLRip - HEVC 1080p 10 bit 60 FPS\Phase Four\Marvel's Ms. Marvel (2022) WEB-DLRip - HEVC 1080p 10 bit 60 FPS\Season 1. Series 1 - 6 of 6.mkv
Формат : Matroska
Версия формата : Version 2
Размер файла : 1,35 Гбайт
Продолжительность : 46 м. 58 с.
Общий поток : 4 105 Кбит/сек
Название фильма : Rip by from DD2D3
Дата кодирования : UTC 2022-07-13 13:39:12
Программа кодирования : mkvmerge v6.9.1 ('Blue Panther') 32bit built on Apr 18 2014 18:15:44
Библиотека кодирования : libebml v1.3.0 + libmatroska v1.4.1
Attachments : poster

Видео
Идентификатор : 1
Формат : HEVC
Формат/Информация : High Efficiency Video Coding
Профиль формата : Main [email protected]@Main
Идентификатор кодека : V_MPEGH/ISO/HEVC
Продолжительность : 46 м. 58 с.
Битрейт : 3 447 Кбит/сек
Ширина : 1 920 пикселей
Высота : 808 пикселей
Высота оригинала : 804 пикселя
Соотношение сторон : 2,40:1
Соотношение сторон в оригинале : 2,40:1
Режим частоты кадров : Постоянный
Частота кадров : 60,000 кадров/сек
Цветовое пространство : YUV
Субдискретизация насыщенности : 4:2:0
Битовая глубина : 10 бит
Бит/(Пиксели*Кадры) : 0.037
Размер потока : 1,13 Гбайт (84%)
Default : Да
Forced : Нет
Цветовой диапазон : Limited
Основные цвета : BT.709
Характеристики трансфера : BT.709
Коэффициенты матрицы : BT.709

Аудио #1
Идентификатор : 2
Формат : AC-3
Формат/Информация : Audio Coding 3
Коммерческое название : Dolby Digital
Идентификатор кодека : A_AC3
Продолжительность : 46 м. 58 с.
Вид битрейта : Постоянный
Битрейт : 192 Кбит/сек
Каналы : 2 канала
Channel layout : L R
Частота : 48,0 КГц
Частота кадров : 31,250 кадров/сек (1536 SPF)
Метод сжатия : С потерями
Размер потока : 64,5 Мбайт (5%)
Заголовок : Flarrow Films
Язык : Russian
Service kind : Complete Main
Default : Да
Forced : Нет

Аудио #2
Идентификатор : 3
Формат : AC-3
Формат/Информация : Audio Coding 3
Коммерческое название : Dolby Digital
Идентификатор кодека : A_AC3
Продолжительность : 46 м. 58 с.
Вид битрейта : Постоянный
Битрейт : 384 Кбит/сек
Каналы : 2 канала
Channel layout : L R
Частота : 48,0 КГц
Частота кадров : 31,250 кадров/сек (1536 SPF)
Метод сжатия : С потерями
Размер потока : 129 Мбайт (9%)
Заголовок : Red Head Sound Jr.
Язык : Russian
Service kind : Complete Main
Default : Нет
Forced : Нет

Текст
Идентификатор : 4
Формат : UTF-8
Идентификатор кодека : S_TEXT/UTF8
Идентификатор кодека/Информация : UTF-8 Plain Text
Заголовок : Где тексты, Лебовски?
Язык : Russian
Default : Да
Forced : Нет


I Am Groot

Информация о фильме:
Название: Я есть Грут
Оригинальное название: I Am Groot
Год выхода: 2022
Жанр: мультфильм, короткометражка, фантастика, фэнтези, боевик, комедия, приключения
Режиссер: Керстен Лепоре
В ролях: Вин Дизель, Фред Таташиор, Терри Дуглас, Кейтлин Роброк, Брэдли Купер, Джеймс Ганн, Боб Берген, Тревор Дивэлл, Скотт Менвиль, Кари Уолгрен
Описание: Приключения малыша Грута.


Страна: США
Студия: Marvel Studios
Продолжительность: 5 x ~ 00:05:00
Перевод: Дублированный | Flarrow Films
Перевод: Профессиональный многоголосый закадровый | Red Head Sound
Субтитры: русские | Где тексты, Лебовски?
Навигация по главам: нет
Информация о файле:
Качество: WEB-DLRip - HEVC 1080p Rip by DD2D3
Формат: MKV
Видео: V_MPEGH/ISO/HEVC; 1920x1080 (16:9); 3142 Kbps; 60 fps; 0,025 bpp
Аудио: русский; AC3; 192 Kbps; CBR; 2 ch ||
Аудио: русский; AC3; 256 Kbps; CBR; 2 ch ||
Доп. информация: нет

Общее
Уникальный идентификатор : 229309419753929028157053982524500599570 (0xAC83634715AA5BAF98C746E857C3E312)
Полное имя : E:\Marvel Studios Series (2021 - ......) WEB-DLRip - HEVC 1080p 10 bit 60 FPS\Phase Four\Marvel's I Am Groot (2022) WEB-DLRip - HEVC 1080p 10 bit 60 FPS\Season 1. Series 1 - 5 of 5.mkv
Формат : Matroska
Версия формата : Version 2
Размер файла : 106 Мбайт
Продолжительность : 4 м. 3 с.
Общий поток : 3 664 Кбит/сек
Название фильма : Rip by from DD2D3
Дата кодирования : UTC 2022-08-17 11:26:13
Программа кодирования : mkvmerge v6.9.1 ('Blue Panther') 32bit built on Apr 18 2014 18:15:44
Библиотека кодирования : libebml v1.3.0 + libmatroska v1.4.1
Attachments : poster

Видео
Идентификатор : 1
Формат : HEVC
Формат/Информация : High Efficiency Video Coding
Профиль формата : Main [email protected]@Main
Идентификатор кодека : V_MPEGH/ISO/HEVC
Продолжительность : 4 м. 3 с.
Битрейт : 3 143 Кбит/сек
Ширина : 1 920 пикселей
Высота : 1 080 пикселей
Соотношение сторон : 16:9
Режим частоты кадров : Постоянный
Частота кадров : 60,000 кадров/сек
Цветовое пространство : YUV
Субдискретизация насыщенности : 4:2:0
Битовая глубина : 10 бит
Бит/(Пиксели*Кадры) : 0.025
Размер потока : 91,4 Мбайт (86%)
Язык : Russian
Default : Да
Forced : Нет
Цветовой диапазон : Limited
Основные цвета : BT.709
Характеристики трансфера : BT.709
Коэффициенты матрицы : BT.709

Аудио #1
Идентификатор : 2
Формат : AC-3
Формат/Информация : Audio Coding 3
Коммерческое название : Dolby Digital
Идентификатор кодека : A_AC3
Продолжительность : 4 м. 3 с.
Вид битрейта : Постоянный
Битрейт : 192 Кбит/сек
Каналы : 2 канала
Channel layout : L R
Частота : 48,0 КГц
Частота кадров : 31,250 кадров/сек (1536 SPF)
Метод сжатия : С потерями
Размер потока : 5,58 Мбайт (5%)
Заголовок : Flarrow Films
Язык : Russian
Service kind : Complete Main
Default : Да
Forced : Нет
Statistics Tags Issue : mkvmerge v32.0.0 ('Astral Progressions') 64-bit 2022-08-16 18:09:04 / mkvmerge v6.9.1 ('Blue Panther') 32bit built on Apr 18 2014 18:15:44 2022-08-17 11:26:13
FromStats_BitRate : 192000
FromStats_Duration : 00:04:03.840000000
FromStats_FrameCount : 7620
FromStats_StreamSize : 5852160

Аудио #2
Идентификатор : 3
Формат : AC-3
Формат/Информация : Audio Coding 3
Коммерческое название : Dolby Digital
Идентификатор кодека : A_AC3
Продолжительность : 4 м. 3 с.
Вид битрейта : Постоянный
Битрейт : 256 Кбит/сек
Каналы : 2 канала
Channel layout : L R
Частота : 48,0 КГц
Частота кадров : 31,250 кадров/сек (1536 SPF)
Метод сжатия : С потерями
Размер потока : 7,44 Мбайт (7%)
Заголовок : Red Head Sound Jr.
Язык : Portuguese
Service kind : Complete Main
Default : Нет
Forced : Нет

Текст
Идентификатор : 4
Формат : UTF-8
Идентификатор кодека : S_TEXT/UTF8
Идентификатор кодека/Информация : UTF-8 Plain Text
Заголовок : Где тексты, Лебовски?
Язык : Russian
Default : Да
Forced : Нет
Statistics Tags Issue : mkvmerge v32.0.0 ('Astral Progressions') 64-bit 2022-08-16 18:09:04 / mkvmerge v6.9.1 ('Blue Panther') 32bit built on Apr 18 2014 18:15:44 2022-08-17 11:26:13
FromStats_BitRate : 3
FromStats_Duration : 00:02:46.333000000
FromStats_FrameCount : 2
FromStats_StreamSize : 67


She-Hulk Attorney at Law

Информация о фильме:
Название: Женщина-Халк: Адвокат
Оригинальное название: She-Hulk Attorney at Law
Год выхода: 2022
Жанр: фантастика, боевик, драма, комедия, приключения
Режиссер: Кэт Койро, Ану Валиа
В ролях: Татьяна Маслани, Марк Руффало, Джинджер Гонзага, Джамила Джамил, Тим Рот, Бенедикт Вонг, Чарли Кокс, Джош Сегарра, Гриффин Мэтьюз, Стив Култер
Описание: В центре истории окажется адвокат Дженнифер Уолтерс - кузина гениального ученого Брюса Беннера.
Она получает суперсилу Халка из за попадания крови в ее тело. Дженнифер предстоит научиться управлять своими силами, и применять их во благо, продолжая работать в новообразованном «отделе по правам сверхлюдей».


Страна: США
Студия: Marvel Studios, Disney+
Продолжительность: 9 x ~ 00:35:00
Перевод: Дублированный | Flarrow Films
Перевод: Профессиональный многоголосый закадровый | Red Head Sound
Субтитры: русские | Где тексты, Лебовски?
Навигация по главам: нет
Информация о файле:
Качество: WEB-DLRip - HEVC 1080p Rip by DD2D3
Формат: MKV
Видео: V_MPEGH/ISO/HEVC; 1920x804 (2.40:1); 3487 Kbps; 60 fps; 0,038 bpp
Аудио: русский; AC3; 192 Kbps; CBR; 2 ch ||
Аудио: русский; AC3; 256 Kbps; CBR; 2 ch ||
Доп. информация: нет

Общее
Уникальный идентификатор : 175450934680732371151572699434150649830 (0x83FE9EF277417328931B9E3D5979DFE6)
Полное имя : E:\Marvel Studios Series (2021 - ......) WEB-DLRip - HEVC 1080p 10 bit 60 FPS\Phase Four\Marvel's She-Hulk Attorney at Law (2022) WEB-DLRip - HEVC 1080p 10 bit 60 FPS\Season 1. Series 1 - 9 of 9.mkv
Формат : Matroska
Версия формата : Version 2
Размер файла : 1 016 Мбайт
Продолжительность : 35 м. 22 с.
Общий поток : 4 015 Кбит/сек
Название фильма : Rip by from DD2D3
Дата кодирования : UTC 2022-10-29 19:40:49
Программа кодирования : mkvmerge v7.8.0 ('River Man') 32bit built on Apr 3 2015 12:11:22
Библиотека кодирования : libebml v1.3.1 + libmatroska v1.4.2
Attachments : poster / poster

Видео
Идентификатор : 1
Формат : HEVC
Формат/Информация : High Efficiency Video Coding
Профиль формата : Main [email protected]@Main
Идентификатор кодека : V_MPEGH/ISO/HEVC
Продолжительность : 35 м. 22 с.
Битрейт : 3 487 Кбит/сек
Ширина : 1 920 пикселей
Высота : 804 пикселя
Соотношение сторон : 2,40:1
Режим частоты кадров : Постоянный
Частота кадров : 60,000 кадров/сек
Цветовое пространство : YUV
Субдискретизация насыщенности : 4:2:0
Битовая глубина : 10 бит
Бит/(Пиксели*Кадры) : 0.038
Размер потока : 882 Мбайт (87%)
Библиотека кодирования : x265 3.5+20-17839cc0d:[Windows][GCC 11.2.0][64 bit] 10bit
Настройки программы : cpuid=1111039 / frame-threads=2 / numa-pools=4 / wpp / no-pmode / no-pme / no-psnr / no-ssim / log-level=2 / input-csp=1 / input-res=1920x804 / interlace=0 / total-frames=127316 / level-idc=41 / high-tier=1 / uhd-bd=0 / ref=3 / no-allow-non-conformance / no-repeat-headers / annexb / no-aud / no-eob / no-eos / no-hrd / info / hash=0 / no-temporal-layers / open-gop / min-keyint=5 / keyint=240 / gop-lookahead=0 / bframes=4 / b-adapt=0 / b-pyramid / bframe-bias=0 / rc-lookahead=15 / lookahead-slices=5 / scenecut=40 / no-hist-scenecut / radl=0 / no-splice / no-intra-refresh / ctu=64 / min-cu-size=8 / no-rect / no-amp / max-tu-size=8 / tu-inter-depth=1 / tu-intra-depth=1 / limit-tu=0 / rdoq-level=0 / dynamic-rd=0.00 / no-ssim-rd / signhide / no-tskip / nr-intra=0 / nr-inter=0 / no-constrained-intra / strong-intra-smoothing / max-merge=3 / limit-refs=3 / no-limit-modes / me=1 / subme=4 / merange=57 / temporal-mvp / no-frame-dup / no-hme / weightp / no-weightb / no-analyze-src-pics / deblock=0:0 / sao / no-sao-non-deblock / rd=3 / selective-sao=4 / no-early-skip / rskip / fast-intra / no-tskip-fast / no-cu-lossless / no-b-intra / no-splitrd-skip / rdpenalty=0 / psy-rd=2.00 / psy-rdoq=0.00 / no-rd-refine / no-lossless / cbqpoffs=-2 / crqpoffs=-2 / rc=abr / bitrate=3750 / qcomp=0.70 / qpstep=4 / stats-write=0 / stats-read=0 / ipratio=1.38 / pbratio=1.28 / aq-mode=2 / aq-strength=1.00 / cutree / zone-count=0 / no-strict-cbr / qg-size=32 / no-rc-grain / qpmax=69 / qpmin=0 / no-const-vbv / sar=1 / overscan=0 / videoformat=5 / range=0 / colorprim=1 / transfer=1 / colormatrix=1 / chromaloc=0 / display-window=0 / cll=0,0 / min-luma=0 / max-luma=1023 / log2-max-poc-lsb=8 / vui-timing-info / vui-hrd-info / slices=1 / no-opt-qp-pps / no-opt-ref-list-length-pps / no-multi-pass-opt-rps / scenecut-bias=0.05 / hist-threshold=0.03 / no-opt-cu-delta-qp / no-aq-motion / no-hdr10 / no-hdr10-opt / no-dhdr10-opt / no-idr-recovery-sei / analysis-reuse-level=0 / analysis-save-reuse-level=0 / analysis-load-reuse-level=0 / scale-factor=0 / refine-intra=0 / refine-inter=0 / refine-mv=1 / refine-ctu-distortion=0 / no-limit-sao / ctu-info=0 / no-lowpass-dct / refine-analysis-type=0 / copy-pic=1 / max-ausize-factor=1.0 / no-dynamic-refine / no-single-sei / no-hevc-aq / no-svt / no-field / qp-adaptation-range=1.00 / scenecut-aware-qp=0conformance-window-offsets / right=0 / bottom=0 / decoder-max-rate=0 / no-vbv-live-multi-pass
Default : Да
Forced : Нет
Цветовой диапазон : Limited
Основные цвета : BT.709
Характеристики трансфера : BT.709
Коэффициенты матрицы : BT.709

Аудио #1
Идентификатор : 2
Формат : AC-3
Формат/Информация : Audio Coding 3
Коммерческое название : Dolby Digital
Идентификатор кодека : A_AC3
Продолжительность : 35 м. 22 с.
Вид битрейта : Постоянный
Битрейт : 192 Кбит/сек
Каналы : 2 канала
Channel layout : L R
Частота : 48,0 КГц
Частота кадров : 31,250 кадров/сек (1536 SPF)
Метод сжатия : С потерями
Размер потока : 48,6 Мбайт (5%)
Заголовок : Flarrow Films
Язык : Russian
Service kind : Complete Main
Default : Да
Forced : Нет
Statistics Tags Issue : mkvmerge v32.0.0 ('Astral Progressions') 64-bit 2022-08-22 07:56:35 / mkvmerge v7.8.0 ('River Man') 32bit built on Apr 3 2015 12:11:22 2022-10-29 19:40:49
FromStats_BitRate : 192000
FromStats_Duration : 00:35:22.048000000
FromStats_FrameCount : 66314
FromStats_StreamSize : 50929152

Аудио #2
Идентификатор : 3
Формат : AC-3
Формат/Информация : Audio Coding 3
Коммерческое название : Dolby Digital
Идентификатор кодека : A_AC3
Продолжительность : 35 м. 22 с.
Вид битрейта : Постоянный
Битрейт : 256 Кбит/сек
Каналы : 2 канала
Channel layout : L R
Частота : 48,0 КГц
Частота кадров : 31,250 кадров/сек (1536 SPF)
Метод сжатия : С потерями
Размер потока : 64,8 Мбайт (6%)
Заголовок : Дубляж - Red Head Sound
Язык : Russian
Service kind : Complete Main
Default : Нет
Forced : Нет

Текст
Идентификатор : 4
Формат : UTF-8
Идентификатор кодека : S_TEXT/UTF8
Идентификатор кодека/Информация : UTF-8 Plain Text
Заголовок : Где тексты, Лебовски?
Язык : Russian
Default : Да
Forced : Нет
Statistics Tags Issue : mkvmerge v32.0.0 ('Astral Progressions') 64-bit 2022-08-22 07:56:35 / mkvmerge v7.8.0 ('River Man') 32bit built on Apr 3 2015 12:11:22 2022-10-29 19:40:49
FromStats_BitRate : 130
FromStats_Duration : 00:33:01.659000000
FromStats_FrameCount : 517
FromStats_StreamSize : 32301

Меню
00:00:00.000 : en:Begin
00:32:16.417 : en:Credits


Werewolf by Night

Информация о фильме:
Название: Ночной оборотень
Оригинальное название: Werewolf by Night
Год выхода: 2022
Жанр: ужасы, комедия
Режиссер: Майкл Джаккино
В ролях: Гаэль Гарсиа Берналь, Лора Доннелли, Харриет Сэнсом Харрис, Леонардо Нам, Эжени Бондюран, Кирк Р. Тэтчер, Аль Хамахер
Описание: После смерти легендарного охотника на нечисть в его поместье собираются коллеги, в том числе давно покинувшая дом родная дочь Эльза. Присутствующим предстоит одолеть запертого в лабиринте монстра, чтобы выяснить, кому достанется мощный волшебный артефакт почившего.


Страна: США
Студия: Marvel Studios
Продолжительность: 00:52:37
Перевод: Профессиональный многоголосый закадровый | Red Head Sound
Субтитры: нет
Навигация по главам: нет
Информация о файле:
Качество: WEB-DLRip - HEVC 1080p Rip by DD2D3
Формат: MKV
Видео: V_MPEGH/ISO/HEVC; 1920x804 (2.40:1); 3501 Kbps; 60 fps; 0,038 bpp
Аудио: русский; AC3; 640 Kbps; CBR; 6 ch ||
Доп. информация: нет

Общее
Уникальный идентификатор : 193290524187361082215580647528936720423 (0x916A669E18ED26DD8CB1A9914B374827)
Полное имя : E:\Marvel Studios Series (2021 - ......) WEB-DLRip - HEVC 1080p 10 bit 60 FPS\Phase Four\Marvel's Werewolf by Night (2022) WEB-DLRip - HEVC 1080p 10 bit 60 FPS.mkv
Формат : Matroska
Версия формата : Version 2
Размер файла : 1,55 Гбайт
Продолжительность : 52 м. 37 с.
Общий поток : 4 226 Кбит/сек
Название фильма : Rip by from DD2D3
Дата кодирования : UTC 2022-10-29 20:01:39
Программа кодирования : mkvmerge v7.8.0 ('River Man') 32bit built on Apr 3 2015 12:11:22
Библиотека кодирования : libebml v1.3.1 + libmatroska v1.4.2
Attachments : poster

Видео
Идентификатор : 1
Формат : HEVC
Формат/Информация : High Efficiency Video Coding
Профиль формата : Main [email protected]@Main
Идентификатор кодека : V_MPEGH/ISO/HEVC
Продолжительность : 52 м. 37 с.
Битрейт : 3 502 Кбит/сек
Ширина : 1 920 пикселей
Высота : 804 пикселя
Соотношение сторон : 2,40:1
Режим частоты кадров : Постоянный
Частота кадров : 60,000 кадров/сек
Цветовое пространство : YUV
Субдискретизация насыщенности : 4:2:0
Битовая глубина : 10 бит
Бит/(Пиксели*Кадры) : 0.038
Размер потока : 1,29 Гбайт (83%)
Библиотека кодирования : x265 3.5+20-17839cc0d:[Windows][GCC 11.2.0][64 bit] 10bit
Настройки программы : cpuid=1111039 / frame-threads=2 / numa-pools=4 / wpp / no-pmode / no-pme / no-psnr / no-ssim / log-level=2 / input-csp=1 / input-res=1920x804 / interlace=0 / total-frames=189468 / level-idc=41 / high-tier=1 / uhd-bd=0 / ref=1 / no-allow-non-conformance / no-repeat-headers / annexb / no-aud / no-eob / no-eos / no-hrd / info / hash=0 / no-temporal-layers / open-gop / min-keyint=5 / keyint=240 / gop-lookahead=0 / bframes=3 / b-adapt=0 / b-pyramid / bframe-bias=0 / rc-lookahead=5 / lookahead-slices=5 / scenecut=0 / no-hist-scenecut / radl=0 / no-splice / no-intra-refresh / ctu=32 / min-cu-size=16 / no-rect / no-amp / max-tu-size=8 / tu-inter-depth=1 / tu-intra-depth=1 / limit-tu=0 / rdoq-level=0 / dynamic-rd=0.00 / no-ssim-rd / no-signhide / no-tskip / nr-intra=0 / nr-inter=0 / no-constrained-intra / strong-intra-smoothing / max-merge=2 / limit-refs=0 / no-limit-modes / me=0 / subme=0 / merange=57 / temporal-mvp / no-frame-dup / no-hme / no-weightp / no-weightb / no-analyze-src-pics / deblock=0:0 / no-sao / no-sao-non-deblock / rd=2 / selective-sao=0 / early-skip / rskip / fast-intra / no-tskip-fast / no-cu-lossless / no-b-intra / no-splitrd-skip / rdpenalty=0 / psy-rd=2.00 / psy-rdoq=0.00 / no-rd-refine / no-lossless / cbqpoffs=-2 / crqpoffs=-2 / rc=abr / bitrate=3750 / qcomp=0.70 / qpstep=4 / stats-write=0 / stats-read=0 / ipratio=1.38 / pbratio=1.28 / aq-mode=1 / aq-strength=0.00 / cutree / zone-count=0 / no-strict-cbr / qg-size=32 / no-rc-grain / qpmax=69 / qpmin=0 / no-const-vbv / sar=1 / overscan=0 / videoformat=5 / range=0 / colorprim=1 / transfer=1 / colormatrix=1 / chromaloc=0 / display-window=0 / cll=0,0 / min-luma=0 / max-luma=1023 / log2-max-poc-lsb=8 / vui-timing-info / vui-hrd-info / slices=1 / no-opt-qp-pps / no-opt-ref-list-length-pps / no-multi-pass-opt-rps / scenecut-bias=0.05 / hist-threshold=0.03 / no-opt-cu-delta-qp / no-aq-motion / no-hdr10 / no-hdr10-opt / no-dhdr10-opt / no-idr-recovery-sei / analysis-reuse-level=0 / analysis-save-reuse-level=0 / analysis-load-reuse-level=0 / scale-factor=0 / refine-intra=0 / refine-inter=0 / refine-mv=1 / refine-ctu-distortion=0 / no-limit-sao / ctu-info=0 / no-lowpass-dct / refine-analysis-type=0 / copy-pic=1 / max-ausize-factor=1.0 / no-dynamic-refine / no-single-sei / no-hevc-aq / no-svt / no-field / qp-adaptation-range=1.00 / scenecut-aware-qp=0conformance-window-offsets / right=0 / bottom=0 / decoder-max-rate=0 / no-vbv-live-multi-pass
Default : Да
Forced : Нет
Цветовой диапазон : Limited
Основные цвета : BT.709
Характеристики трансфера : BT.709
Коэффициенты матрицы : BT.709

Аудио
Идентификатор : 2
Формат : AC-3
Формат/Информация : Audio Coding 3
Коммерческое название : Dolby Digital
Идентификатор кодека : A_AC3
Продолжительность : 52 м. 37 с.
Вид битрейта : Постоянный
Битрейт : 640 Кбит/сек
Каналы : 6 каналов
Channel layout : L R C LFE Ls Rs
Частота : 48,0 КГц
Частота кадров : 31,250 кадров/сек (1536 SPF)
Метод сжатия : С потерями
Размер потока : 241 Мбайт (15%)
Заголовок : Дубляж - Red Head Sound
Язык : Russian
Service kind : Complete Main
Default : Да
Forced : Нет


The Guardians of the Galaxy Holiday Special

Информация о фильме:
Название: Стражи Галактики: Праздничный спецвыпуск
Оригинальное название: The Guardians of the Galaxy Holiday Special
Год выхода: 2022
Жанр: Фантастика, фэнтези, боевик, комедия, приключения
Режиссер: Джеймс Ганн
В ролях: Крис Пратт, Пом Клементьефф, Дэйв Батиста, Брэдли Купер, Вин Дизель, Карен Гиллан, Шон Ганн, Кевин Бейкон, Мария Бакалова, Майкл Рукер
Описание: Стражи Галактики отмечают Рождество и отправляются на Землю, чтобы отыскать идеальный подарок для Питера Квилла.


Страна: США
Студия: Marvel Studios
Продолжительность: 00:41:55
Перевод: Профессиональный многоголосый закадровый | Flarrow Films
Субтитры: русские | Где тексты, Лебовски?
Навигация по главам: нет
Информация о файле:
Качество: WEB-DLRip - HEVC 1080p Rip by DD2D3
Формат: MKV
Видео: V_MPEGH/ISO/HEVC; 1920x1080 (16:9); 3483 Kbps; 60 fps; 0,028 bpp
Аудио: русский; AC3; 192 Kbps; CBR; 2 ch ||
Доп. информация: нет

Общее
Уникальный идентификатор : 181532747840726622798489682617251554876 (0x8891EF7C9F4E8F50876241E63E6E663C)
Полное имя : E:\Marvel Studios Series (2021 - ......) WEB-DLRip - HEVC 1080p 10 bit 60 FPS\Phase Four\The Guardians of the Galaxy Holiday Special (2022) WEB-DLRip - HEVC 1080p 10 bit 60 FPS.mkv
Формат : Matroska
Версия формата : Version 2
Размер файла : 1,10 Гбайт
Продолжительность : 41 м. 55 с.
Общий поток : 3 750 Кбит/сек
Название фильма : Rip by from DD2D3
Дата кодирования : UTC 2022-12-06 16:28:20
Программа кодирования : mkvmerge v7.8.0 ('River Man') 32bit built on Apr 3 2015 12:11:22
Библиотека кодирования : libebml v1.3.1 + libmatroska v1.4.2
Attachments : poster

Видео
Идентификатор : 1
Формат : HEVC
Формат/Информация : High Efficiency Video Coding
Профиль формата : Main [email protected]@Main
Идентификатор кодека : V_MPEGH/ISO/HEVC
Продолжительность : 41 м. 55 с.
Битрейт : 3 483 Кбит/сек
Ширина : 1 920 пикселей
Высота : 1 080 пикселей
Соотношение сторон : 16:9
Режим частоты кадров : Постоянный
Частота кадров : 60,000 кадров/сек
Цветовое пространство : YUV
Субдискретизация насыщенности : 4:2:0
Битовая глубина : 10 бит
Бит/(Пиксели*Кадры) : 0.028
Размер потока : 1,02 Гбайт (93%)
Библиотека кодирования : x265 3.5+20-17839cc0d:[Windows][GCC 11.2.0][64 bit] 10bit
Настройки программы : cpuid=1111039 / frame-threads=2 / numa-pools=4 / wpp / no-pmode / no-pme / no-psnr / no-ssim / log-level=2 / input-csp=1 / input-res=1920x1080 / interlace=0 / total-frames=150953 / level-idc=41 / high-tier=1 / uhd-bd=0 / ref=3 / no-allow-non-conformance / no-repeat-headers / annexb / no-aud / no-eob / no-eos / no-hrd / info / hash=0 / no-temporal-layers / open-gop / min-keyint=5 / keyint=240 / gop-lookahead=0 / bframes=4 / b-adapt=2 / b-pyramid / bframe-bias=0 / rc-lookahead=20 / lookahead-slices=6 / scenecut=40 / no-hist-scenecut / radl=0 / no-splice / no-intra-refresh / ctu=64 / min-cu-size=8 / no-rect / no-amp / max-tu-size=8 / tu-inter-depth=1 / tu-intra-depth=1 / limit-tu=0 / rdoq-level=0 / dynamic-rd=0.00 / no-ssim-rd / signhide / no-tskip / nr-intra=0 / nr-inter=0 / no-constrained-intra / strong-intra-smoothing / max-merge=3 / limit-refs=1 / no-limit-modes / me=1 / subme=5 / merange=57 / temporal-mvp / no-frame-dup / no-hme / weightp / no-weightb / no-analyze-src-pics / deblock=0:0 / sao / no-sao-non-deblock / rd=3 / selective-sao=4 / early-skip / rskip / no-fast-intra / no-tskip-fast / no-cu-lossless / b-intra / no-splitrd-skip / rdpenalty=0 / psy-rd=2.00 / psy-rdoq=0.00 / no-rd-refine / no-lossless / cbqpoffs=-2 / crqpoffs=-2 / rc=abr / bitrate=3700 / qcomp=0.70 / qpstep=4 / stats-write=0 / stats-read=0 / ipratio=1.38 / pbratio=1.28 / aq-mode=2 / aq-strength=1.00 / cutree / zone-count=0 / no-strict-cbr / qg-size=32 / no-rc-grain / qpmax=69 / qpmin=0 / no-const-vbv / sar=1 / overscan=0 / videoformat=5 / range=0 / colorprim=1 / transfer=1 / colormatrix=1 / chromaloc=0 / display-window=0 / cll=0,0 / min-luma=0 / max-luma=1023 / log2-max-poc-lsb=8 / vui-timing-info / vui-hrd-info / slices=1 / no-opt-qp-pps / no-opt-ref-list-length-pps / no-multi-pass-opt-rps / scenecut-bias=0.05 / hist-threshold=0.03 / no-opt-cu-delta-qp / no-aq-motion / no-hdr10 / no-hdr10-opt / no-dhdr10-opt / no-idr-recovery-sei / analysis-reuse-level=0 / analysis-save-reuse-level=0 / analysis-load-reuse-level=0 / scale-factor=0 / refine-intra=0 / refine-inter=0 / refine-mv=1 / refine-ctu-distortion=0 / no-limit-sao / ctu-info=0 / no-lowpass-dct / refine-analysis-type=0 / copy-pic=1 / max-ausize-factor=1.0 / no-dynamic-refine / no-single-sei / no-hevc-aq / no-svt / no-field / qp-adaptation-range=1.00 / scenecut-aware-qp=0conformance-window-offsets / right=0 / bottom=0 / decoder-max-rate=0 / no-vbv-live-multi-pass
Default : Да
Forced : Нет
Цветовой диапазон : Limited
Основные цвета : BT.709
Характеристики трансфера : BT.709
Коэффициенты матрицы : BT.709

Аудио
Идентификатор : 2
Формат : AC-3
Формат/Информация : Audio Coding 3
Коммерческое название : Dolby Digital
Идентификатор кодека : A_AC3
Продолжительность : 41 м. 55 с.
Вид битрейта : Постоянный
Битрейт : 192 Кбит/сек
Каналы : 2 канала
Channel layout : L R
Частота : 48,0 КГц
Частота кадров : 31,250 кадров/сек (1536 SPF)
Метод сжатия : С потерями
Размер потока : 57,6 Мбайт (5%)
Заголовок : Flarrow Films
Язык : Russian
Service kind : Complete Main
Default : Да
Forced : Нет
Statistics Tags Issue : mkvmerge v32.0.0 ('Astral Progressions') 64-bit 2022-12-05 07:48:45 / mkvmerge v7.8.0 ('River Man') 32bit built on Apr 3 2015 12:11:22 2022-12-06 16:28:20
FromStats_BitRate : 192000
FromStats_Duration : 00:41:55.968000000
FromStats_FrameCount : 78624
FromStats_StreamSize : 60383232

Текст
Идентификатор : 3
Формат : UTF-8
Идентификатор кодека : S_TEXT/UTF8
Идентификатор кодека/Информация : UTF-8 Plain Text
Заголовок : Где тексты, Лебовски?
Язык : Russian
Default : Да
Forced : Нет
Statistics Tags Issue : mkvmerge v32.0.0 ('Astral Progressions') 64-bit 2022-12-05 07:48:45 / mkvmerge v7.8.0 ('River Man') 32bit built on Apr 3 2015 12:11:22 2022-12-06 16:28:20
FromStats_BitRate : 106
FromStats_Duration : 00:41:27.291000000
FromStats_FrameCount : 533
FromStats_StreamSize : 32964


© Оформление by DD2D3



Скачать Коллекция сериалов Marvel через торрент https://pic1.kartinco.top/new/img/2021-07/27/c6d4wy0dlz2hj637cntws8c2j.jpg Скачать, смотреть онлайн Коллекция сериалов Marvel бесплантно в хорошем качестве Описание: Ванда и Вижн — молодожены, живущие в идиллическом городке Вествью. Поначалу жизнь героев кажется им идеальной, но постепенно они ... 10 10 1
Торрент: Зарегистрирован [2022-12-16 21:17] · скачан: 3 раз
Статус: √ проверено
Размер: 73.15 GB
Как cкачать? Как скачать Коллекция сериалов Marvel через торрент | UTorrent




Последний раз редактировалось: dd2d3 (2022-12-16 21:17), всего редактировалось 7 раз(а)

28-11-2019 20:33  


Отключить вcю реклaмy на сайте, в т.ч. и в плеере онлайн просмотра!

14-08-2021 15:19 Коллекция сериалов Marvel Скачать торрент  

раздайте пожалйста. Вообще не качает



11-10-2021 09:17 Коллекция сериалов Marvel Скачать торрент  

в какой последовательности смотреть ?



11-10-2021 09:47 Коллекция сериалов Marvel Скачать торрент  

1. Локи ( сюжет идет 2012 году)
2. Ванда/Вижен ( сюжет идет после Мстителей: Финал)
3. Сокол и Зимний солдат ( сюжет идет после Мстителей: Финал)
4. Что если ( знакомство с мультивселенной)


https://mar...B8%D1%8F
вот ссылка хронологии



24-10-2021 15:07 Коллекция сериалов Marvel Скачать торрент  

Спасибо, пацаны, от души душевно.



27-12-2021 07:28 Коллекция сериалов Marvel Скачать торрент  

Вот тут фильмы марвел и еще пару десятков разных.
Собрал топчик как говориться...


https://dis...uylPWiNQ



27-12-2021 11:16 Коллекция сериалов Marvel Скачать торрент  

Мне вот ванда и вижен не зашел совсем..



24-02-2022 21:00 Коллекция сериалов Marvel Скачать торрент  

Прошу при добавлении новых серий добавить озвучку от flarrow films (дубляж) на все вышедшие серии, заранее благодарю.



06-04-2022 16:24 Коллекция сериалов Marvel Скачать торрент  

Прошу при добавлении новых сериалов прошу добавить озвучку от flarrow films (дубляж) на уже выложенные сериалы и на новый лунный рыцарь - Red Head Sound (дубляж) (все озвучки выходят с задержкой в 1 неделю после официального релиза серий. За ранее благодарен.



07-04-2022 10:59 Коллекция сериалов Marvel Скачать торрент  

я пока завязал с сериалами, меня напрягает то что, хренова туча

LF и FF у них звук в основном AC3, 2 ch, ` 320 Кбит/с
AF, NS, TVShows у них звук в основном AC3, 6 ch, 384 - 640 Кбит/с, и тут самое главное откровенность перевода и каждому нравиться, что то свое, а все озвучки добавлять, размер растет файла.



18-05-2022 16:46 Коллекция сериалов Marvel Скачать торрент  

Спасибо. Как всегда отменное качество.



23-05-2022 19:04 Коллекция сериалов Marvel Скачать торрент  

Ты это сделал)))) Спасибо тебе большое)))
P.S. Теперь даже не удобно просить, учитывая весь труд, но по Лунному рыцарю лучше проф дубляж RedHeadSound, другими сериалами марвел они не занимались, но и в дальнейших проектах, таких как женщина халк они будут приглашать официальные голоса (доктор бэнер/халк и тд), но только по тем проектам где они будут участвовать, а так огромное тебе спасибо за труд)))



23-05-2022 20:42 Коллекция сериалов Marvel Скачать торрент  

фондорин писал(а):

Ты это сделал)))) Спасибо тебе большое)))
P.S. Теперь даже не удобно просить, учитывая весь труд, но по Лунному рыцарю лучше проф дубляж RedHeadSound, другими сериалами марвел они не занимались, но и в дальнейших проектах, таких как женщина халк они будут приглашать официальные голоса (доктор бэнер/халк и тд), но только по тем проектам где они будут участвовать, а так огромное тебе спасибо за труд)))

По данному поводу мне Flarrow Films понравился - так как они локализуют видеоряд. А так я сам сериал скачиваю жесткий диск потихоньку летит.



24-05-2022 08:00 Коллекция сериалов Marvel Скачать торрент  

Да, все верно, Flarrow Films единственные кто локализовал видео ряд в сериалах Марвел, но из за 24 февраля и ухода с рынка кинокомпаний много проф актеров и проф студий остались без работы, одной такой и оказалась redheadsound, ранее учувствовали в проф дубляже марвел и дисней, да собственно лучшее один раз услышать, поищи в интернете и сам все поймешь) Единственный проект который они на сегодня перевели по марвел это Лунный рыцарь (если не считать лицензионных работ таких как последний Доктор Стрэндж или человек-паук), просто послушай и сравни. А так конечно на твое усмотрение) В любом случае огромное спасибо уже за это)))



24-05-2022 09:02 Коллекция сериалов Marvel Скачать торрент  

Проблема тут возникает в том, что некоторые предпочитают локализованный видеоряд, из-за этого не все озвучки можно совместить. Да и блин парой бесит, то что не все студии делают озвучки сериалов, то есть NewStudio не озвучило сериал "что если" и такая петрушка.



24-05-2022 14:57 Коллекция сериалов Marvel Скачать торрент  

В любом случае ради теста сравни озвучки), если и совместить удастся или добавить как альтернативную озвучку, то это будет просто замечательно.



Друзья, наш проект PiratBit построен на чистом энтузиазме. Денег от рекламы он приносит мало, потому как нет хороших, богатых рекламодателей, которые бы хотели работать с сайтами, которые нарушают законодательство той или иной страны, да и вешать какую-то шлако-рекламу с вирусами тоже мы не хотим, поскольку мы уважаем своих пользователей и Ваша безопасность на нашем сайте для нас превыше всего. В связи с этим, мы вынуждены просить помощи у каждого из Вас. Каких-то 3, 5, 10 рублей для каждого из Вас по большому счету копейки, а для нас это будет хорошая поддержка.
Нашими приоритетами всегда были качество и быстрота везде и во всем!!!
Технически так сложилось, чтобы все "летало" мы используем 4 мощных абузоустойчивых сервера, каждый из которых стоит 100$ в месяц.
Ребята, мы будем рады любой помощи, надеюсь на понимание...

Важно, если ваш платеж составляет больше 100 руб.(единоразово) то мы для вас отключим рекламу на месяц, 200=2мес., 300=3мес., 400=4мес., если больше чем 499 руб.(единоразово) то на 6 месяцев, УКАЗЫВАЙТЕ СВОЙ НИК В ПРИМЕЧАНИИ К ПЛАТЕЖУ!


Яндекс Деньги,QIWI,WebMoney,Steam,Payeer,СберБанк,Мобильный,BitCoin,PayPal

24-05-2022 14:58 Коллекция сериалов Marvel Скачать торрент  

В любом случае огромное спасибо за проделанную работу



29-05-2022 08:18 Коллекция сериалов Marvel Скачать торрент  

огромное спасибо.
можно раздающих попросить вернуться, встал на 63 процента и всё



12-08-2022 10:35 Коллекция сериалов Marvel Скачать торрент  

Привет, вышел дубляж всех 6 серий мисс Марвел от Flarrow Films и я есть Грут дубляж от Red Head Sound. Если будет все же возможность добавить в Лунного рыцаря 2 дорожку дубляжа от Red Head Sound буду особо благодарен.



16-08-2022 21:55 Коллекция сериалов Marvel Скачать торрент  

Тогда хорошая новость, у фларров вышел локализованный видеоряд)



18-08-2022 15:30 Коллекция сериалов Marvel Скачать торрент  

Я на раздаче



20-08-2022 11:40 Коллекция сериалов Marvel Скачать торрент  

Спасибо!



11-11-2022 00:07 Коллекция сериалов Marvel Скачать торрент  

Раздай плз



05-12-2022 16:31 Коллекция сериалов Marvel Скачать торрент  

СТРАЖИ ГАЛАКТИКИ: ПРАЗДНИЧНЫЙ СПЕЦВЫПУСК фларров вышел )



07-01-2023 20:18 Коллекция сериалов Marvel Скачать торрент  

Плиз скорости добавить! 2% осталось! Уже дня три не могу докачать!



    Дорогой пользователь! Огромная просьба, поблагодарите релизера, оцените раздачу и оставьте свои комментарий, если Вы скачали Коллекция сериалов Marvel через торрент бесплатно!!
    Комментировать посты могут только пользователи прошедшие не сложную регистрацию
    Показать сообщения:    


    Коллекция сериалов Marvel через торрент
    Скачать бесплатно Коллекция сериалов Marvel
    Коллекция сериалов Marvel скачать торрент
    Коллекция сериалов Marvel смотреть онлайн
    Cкачать фильм Коллекция сериалов Marvel бесплатно
    Коллекция сериалов Marvel скачать торрент в хорошем качестве
    Коллекция сериалов Marvel смотреть онлайн бесплатно в хорошем качестве
    Вы не можете начинать темы
    Вы не можете отвечать на сообщения
    Вы не можете редактировать свои сообщения
    Вы не можете удалять свои сообщения
    Вы не можете голосовать в опросах
    Вы не можете прикреплять файлы к сообщениям
    Вы можете скачивать файлы
    Коллекция сериалов Marvel / Marvel TV series: Collection [2021 - ...., фантастика, боевик, комедия, приключения , WEB-DLRip - HEVC 1080p 10 bit 60 FPS, Дубляж] смотреть онлайн, скачать торрент picoco.icu