Anonymous, добрый вечер, присоединяйтесь к нам в Telegram!, здесь всегда актуальный адрес сайта, оперативная поддержка и многое другое!

>

5.5

iTunes

7.4

iTunes

7.9

iTunes

1

7.7

1 сезон

6.8

iTunes

7.3

1 сезон

13

6.7

1 сезон

8.3

RePack

30

ULTIMATE

pack

9.9

Лицензия

ВАЖНО

ИГРА 18+

pack

7.3

RePack

MK11

7.7

RePack

jed

7.8

RePack

fifa19

8.5

RePack

RDR2

RePack

NEED FOR SPEED™ PAYBACK

4 сезон

9 сезон

Бесстыжие 9 сезон

Все сериалы

все сериалы на PB.wtf

RePack

FAR CRY 5

Anonymous, добрый вечер, мы катастрофически не успеваем собрать деньги на оплату серверов, помогите нам пожалуйста 5,10,15р., для нас важна любая помощь . В качестве благодарности мы отключим Вам всю рекламу на сайте (укажите свой ник в строку Ваше имя)!

×
  
Magnet ссылка

Коллекция сериалов Marvel / Marvel TV series: Collection (Part 1) [2021 - ...., фантастика, боевик, комедия, приключения , WeBRip - HEVC 1080p 10 bit 60 FPS, MVO] pb.wtf

Коллекция сериалов Marvel через торрент pb.wtf

Раздают: 2 [ 0 KB/s ] Качают: 1 [ 0 KB/s ]
Размер: 47.94 GB | Добавлен: 17 д. назад | Торрент скачан:8 раз
Смотреть онлайн Коллекция сериалов Marvel | Скачать    Ребята, помогите собрать деньги на оплату серверов!!!

27-07-2021 19:30 Коллекция сериалов Marvel Скачать торрент  



Телесериалы киновселенной Marvel — американские супергеройские телевизионные проекты, основанные на персонажах Marvel Comics. Телесериалы входят в хронологию общей вселенной фильмов Marvel Studios или вдохновлены ими. Первый шаг к появлению персонажей на телеэкранах был сделан в 2010 году, после создания подразделения Marvel Television, которое совместно с ABC Studios разработало 12 телесериалов. Эти проекты выходили на разных телеканалах и стриминг-сервисах: ABC, Netflix, Hulu, и Freeform. Основная линейка телесериалов ABC была вдохновлена фильмами и их персонажами, впоследствии эта линейка стала называться «Герои Marvel». Другое ответвление телесериалов от Netflix получило название «Рыцари Marvel», все сериалы были взаимосвязаны. Проекты для подростковой аудитории были созданы платформами Freeform и Hulu и названы «Путешествие через страх». Подразделение Marvel Television было закрыто в декабре 2019 года. В 2018 году Marvel Studios, основная производственная студия, начала создание собственных сериалов для стриминг-сервиса Disney+. По меньшей мере, 9 проектов находятся в различных стадиях производства. Эти сериалы сосредоточены на второстепенных персонажах фильмов, имеют бо́льшие бюджеты (чем проекты Marvel Television), будут напрямую связаны с фильмами и станут официальным каноном киновселенной. После закрытия сериалов от Marvel Television телеканал ABC выразил интерес к совместному производству проектов с Marvel Studios.

WandaVision
«Marvel Studios presents a visionary new age of television»


Год выпуска: 2021
Страна: США
Жанр: фантастика, фэнтези, боевик, драма, комедия

Продолжительность: 9 x ~ 00:27:00 серия
Перевод: Профессиональный (многоголосый закадровый) | LostFilm
Перевод: Профессиональный (многоголосый закадровый) | AlexFilm
Перевод: Профессиональный (многоголосый закадровый) | NewStudio
Перевод: Профессиональный (многоголосый закадровый) | TVShows
Субтитры: русские | FOCS

Режиссер: Мэтт Шекман
В ролях: Элизабет Олсен, Пол Беттани, Тейона Паррис, Кэтрин Хан, Кэт Деннингс, Рэндолл Пак, Брайан Брайтман, Джолин Парди, Азиф Али, Шэйн Беренг, Фред Меламед

Описание:
Ванда и Вижн — молодожены, живущие в идиллическом городке Вествью. Поначалу жизнь героев кажется им идеальной, но постепенно они понимают, что это не так.

Мировая премьера: 15 января 2021


Качество: WeBRip 1080p Rip by DD2D3
Формат: MKV
Видео: V_MPEGH/ISO/HEVC; 1920x1080 (16:9); 5026 Kbps; 59,940 fps; 0,040 bpp
Аудио: русский; AC3; 384 Kbps; CBR; 6 ch ||
Аудио: русский; AC3; 384 Kbps; CBR; 6 ch ||
Аудио: русский; AC3; 384 Kbps; CBR; 6 ch ||
Аудио: русский; AC3; 384 Kbps; CBR; 6 ch ||
Навигация по главам: нет



Общее
Уникальный идентификатор : 199547178675995561751573983638718834145 (0x961F638013067881B6E93397F2B4E5E1)
Полное имя : D:\Marvel TV series Collection (2013 - ......) WeBRip - HEVC 1080p 10 bit 60 FPS\The Marvel Series Collection (Disney+)\Marvel's WandaVision (2021) WeBRip - HEVC 1080p 10 bit 60 FPS\Season 1. Series 1 - 9 of 9.mkv
Формат : Matroska
Версия формата : Version 4
Размер файла : 1,22 Гбайт
Продолжительность : 26 м. 33 с.
Общий поток : 6 578 Кбит/сек
Название фильма : Rip by from DD2D3
Дата кодирования : UTC 2021-07-04 12:18:25
Программа кодирования : mkvmerge v10.0.0 ('To Drown In You') 32bit
Библиотека кодирования : libebml v1.3.4 + libmatroska v1.4.5
Attachments : poster

Видео
Идентификатор : 1
Формат : HEVC
Формат/Информация : High Efficiency Video Coding
Профиль формата : Main 10@L4.1@Main
Идентификатор кодека : V_MPEGH/ISO/HEVC
Продолжительность : 26 м. 32 с.
Битрейт : 5 027 Кбит/сек
Ширина : 1 920 пикселей
Высота : 1 080 пикселей
Соотношение сторон : 16:9
Режим частоты кадров : Постоянный
Частота кадров : 59,940 (60000/1001) кадров/сек
Цветовое пространство : YUV
Субдискретизация насыщенности : 4:2:0
Битовая глубина : 10 бит
Бит/(Пиксели*Кадры) : 0.040
Размер потока : 955 Мбайт (76%)
Библиотека кодирования : x265 2.3+33-0b7d54dbb71a87a0:[Windows][MSVC 1800][64 bit] 10bit: KG7x [x265.ru]
Настройки программы : cpuid=1173503 / frame-threads=2 / numa-pools=4 / wpp / no-pmode / no-pme / no-psnr / no-ssim / log-level=2 / input-csp=1 / input-res=1920x1080 / interlace=0 / total-frames=95481 / level-idc=41 / high-tier=1 / uhd-bd=0 / ref=3 / no-allow-non-conformance / no-repeat-headers / annexb / no-aud / no-hrd / info / hash=0 / no-temporal-layers / open-gop / min-keyint=25 / keyint=250 / bframes=4 / b-adapt=2 / b-pyramid / bframe-bias=0 / rc-lookahead=20 / lookahead-slices=6 / scenecut=40 / no-intra-refresh / ctu=64 / min-cu-size=8 / no-rect / no-amp / max-tu-size=32 / tu-inter-depth=1 / tu-intra-depth=1 / limit-tu=0 / rdoq-level=0 / dynamic-rd=0.00 / no-ssim-rd / signhide / no-tskip / nr-intra=0 / nr-inter=0 / no-constrained-intra / strong-intra-smoothing / max-merge=2 / limit-refs=3 / no-limit-modes / me=1 / subme=2 / merange=57 / temporal-mvp / weightp / no-weightb / no-analyze-src-pics / deblock=0:0 / sao / no-sao-non-deblock / rd=3 / no-early-skip / rskip / no-fast-intra / no-tskip-fast / no-cu-lossless / no-b-intra / rdpenalty=0 / psy-rd=2.00 / psy-rdoq=0.00 / no-rd-refine / analysis-mode=0 / no-lossless / cbqpoffs=0 / crqpoffs=0 / rc=abr / bitrate=5000 / qcomp=0.60 / qpstep=4 / stats-write=0 / stats-read=2 / cplxblur=20.0 / qblur=0.5 / ipratio=1.40 / pbratio=1.30 / aq-mode=1 / aq-strength=1.00 / cutree / zone-count=0 / no-strict-cbr / qg-size=32 / no-rc-grain / qpmax=69 / qpmin=0 / sar=1 / overscan=0 / videoformat=5 / range=0 / colorprim=2 / transfer=2 / colormatrix=2 / chromaloc=0 / display-window=0 / max-cll=0,0 / min-luma=0 / max-luma=1023 / log2-max-poc-lsb=8 / vui-timing-info / vui-hrd-info / slices=1 / opt-qp-pps / opt-ref-list-length-pps / no-multi-pass-opt-rps / scenecut-bias=0.05 / no-opt-cu-delta-qp / no-aq-motion / no-hdr / no-hdr-opt / refine-level=5 / no-limit-sao
Default : Да
Forced : Нет

Аудио #1
Идентификатор : 2
Формат : AC-3
Формат/Информация : Audio Coding 3
Коммерческое название : Dolby Digital
Идентификатор кодека : A_AC3
Продолжительность : 26 м. 33 с.
Вид битрейта : Постоянный
Битрейт : 384 Кбит/сек
Каналы : 6 каналов
Channel layout : L R C LFE Ls Rs
Частота : 48,0 КГц
Частота кадров : 31,250 кадров/сек (1536 SPF)
Метод сжатия : С потерями
Размер потока : 72,9 Мбайт (6%)
Заголовок : LostFilm
Язык : Russian
Service kind : Complete Main
Default : Нет
Forced : Нет

Аудио #2
Идентификатор : 3
Формат : AC-3
Формат/Информация : Audio Coding 3
Коммерческое название : Dolby Digital
Идентификатор кодека : A_AC3
Продолжительность : 26 м. 33 с.
Вид битрейта : Постоянный
Битрейт : 384 Кбит/сек
Каналы : 6 каналов
Channel layout : L R C LFE Ls Rs
Частота : 48,0 КГц
Частота кадров : 31,250 кадров/сек (1536 SPF)
Метод сжатия : С потерями
Размер потока : 72,9 Мбайт (6%)
Заголовок : AlexFilm
Язык : Russian
Service kind : Complete Main
Default : Да
Forced : Нет

Аудио #3
Идентификатор : 4
Формат : AC-3
Формат/Информация : Audio Coding 3
Коммерческое название : Dolby Digital
Идентификатор кодека : A_AC3
Продолжительность : 26 м. 33 с.
Вид битрейта : Постоянный
Битрейт : 384 Кбит/сек
Каналы : 6 каналов
Channel layout : L R C LFE Ls Rs
Частота : 48,0 КГц
Частота кадров : 31,250 кадров/сек (1536 SPF)
Метод сжатия : С потерями
Размер потока : 72,9 Мбайт (6%)
Заголовок : NewStudio
Язык : Russian
Service kind : Complete Main
Default : Нет
Forced : Нет

Аудио #4
Идентификатор : 5
Формат : AC-3
Формат/Информация : Audio Coding 3
Коммерческое название : Dolby Digital
Идентификатор кодека : A_AC3
Продолжительность : 26 м. 33 с.
Вид битрейта : Постоянный
Битрейт : 384 Кбит/сек
Каналы : 6 каналов
Channel layout : L R C LFE Ls Rs
Частота : 48,0 КГц
Частота кадров : 31,250 кадров/сек (1536 SPF)
Метод сжатия : С потерями
Размер потока : 72,9 Мбайт (6%)
Заголовок : TVShows
Язык : Russian
Service kind : Complete Main
Default : Нет
Forced : Нет

Текст
Идентификатор : 6
Формат : UTF-8
Идентификатор кодека : S_TEXT/UTF8
Идентификатор кодека/Информация : UTF-8 Plain Text
Продолжительность : 25 м. 44 с.
Битрейт : 116 бит/сек
Count of elements : 402
Размер потока : 22,0 Кбайт (0%)
Язык : Russian
Default : Да
Forced : Нет
скриншот   скриншот   скриншот   скриншот   скриншот   скриншот   скриншот   скриншот  


© Оформление by DD2D3


Marvel's The Falcon and the Winter Soldier


Год выпуска: 2021
Страна: США
Жанр: фантастика, фэнтези, боевик, драма, комедия

Продолжительность: 6 x ~00:50:00 серия
Перевод: Профессиональный (многоголосый закадровый) | LostFilm
Перевод: Профессиональный (многоголосый закадровый) | AlexFilm
Перевод: Профессиональный (многоголосый закадровый) | NewStudio
Перевод: Профессиональный (многоголосый закадровый) | TVShows
Субтитры: русские | FOCS

Режиссер: Кари Скогланд
В ролях: Энтони Маки, Себастьян Стэн, Даниэль Брюль, Десмонд Чайм, Джон Геттье, Мики Исикава, Эрин Келлиман, Эдеперо Одуйе, Уайатт Расселл, Эмили ВанКэмп и др.

Описание:
Действие сериала разворачивается после развязки «Мстителей: Финал». Сэм Уилсон (Энтони Маки) не решился оставить щит Капитана Америки себе, чтобы продолжить дело Стива Роджерса, а передал его правительству, взяв на себя лишь обязанность выполнять некоторые поручения властей. Его коллега и друг Баки Барнс (Себастьян Стэн) продолжает бороться с посттравматическим расстройством, которое он заработал за годы пребывания на темной стороне. Баки мечтает привыкнуть к обычной жизни, посещает психолога, страдает от кошмаров и изо всех сил старается загладить вину перед всеми, кому когда-то навредил. Оба не знают, как им дальше жить, так что Сэм предлагает Баки временно погостить у его семьи. Однако предаваться релаксу у супергероев не получится: власти США опять примут неверное решение, и над гражданами страны нависнет смертельная угроза в лице коварного суперзлодея Гельмута Земо (Даниэль Брюль).

Мировая премьера: 19 марта 2021


Качество: WeBRip 1080p Rip by DD2D3
Формат: MKV
Видео: V_MPEGH/ISO/HEVC; 1920x804 (2.40:1); 3681 Kbps; 60 fps; 0,040 bpp
Аудио: русский; AC3; 640 Kbps; CBR; 6 ch ||
Аудио: русский; AC3; 384 Kbps; CBR; 6 ch ||
Аудио: русский; AC3; 384 Kbps; CBR; 6 ch ||
Аудио: русский; AC3; 384 Kbps; CBR; 6 ch ||
Навигация по главам: нет



Общее
Уникальный идентификатор : 186268343947448893499938411530549902763 (0x8C21FA66B9F8D21AAAC5D9D53F9ABDAB)
Полное имя : D:\Marvel TV series Collection (2013 - ......) WeBRip - HEVC 1080p 10 bit 60 FPS\The Marvel Series Collection (Disney+)\Marvel's The Falcon and the Winter Soldier (2021) WeBRip - HEVC 1080p 10 bit 60 FPS\Season 1. Series 1 - 6 of 6.mkv
Формат : Matroska
Версия формата : Version 4
Размер файла : 1,81 Гбайт
Продолжительность : 47 м. 16 с.
Общий поток : 5 482 Кбит/сек
Название фильма : Rip by from DD2D3
Дата кодирования : UTC 2021-07-04 12:38:19
Программа кодирования : mkvmerge v10.0.0 ('To Drown In You') 32bit
Библиотека кодирования : libebml v1.3.4 + libmatroska v1.4.5
Attachments : poster

Видео
Идентификатор : 1
Формат : HEVC
Формат/Информация : High Efficiency Video Coding
Профиль формата : Main 10@L4.1@Main
Идентификатор кодека : V_MPEGH/ISO/HEVC
Продолжительность : 47 м. 15 с.
Битрейт : 3 682 Кбит/сек
Ширина : 1 920 пикселей
Высота : 804 пикселя
Соотношение сторон : 2,40:1
Режим частоты кадров : Постоянный
Частота кадров : 60,000 кадров/сек
Цветовое пространство : YUV
Субдискретизация насыщенности : 4:2:0
Битовая глубина : 10 бит
Бит/(Пиксели*Кадры) : 0.040
Размер потока : 1,22 Гбайт (67%)
Библиотека кодирования : x265 2.3+33-0b7d54dbb71a87a0:[Windows][MSVC 1800][64 bit] 10bit: KG7x [x265.ru]
Настройки программы : cpuid=1173503 / frame-threads=2 / numa-pools=4 / wpp / no-pmode / no-pme / no-psnr / no-ssim / log-level=2 / input-csp=1 / input-res=1920x804 / interlace=0 / total-frames=170148 / level-idc=41 / high-tier=1 / uhd-bd=0 / ref=3 / no-allow-non-conformance / no-repeat-headers / annexb / no-aud / no-hrd / info / hash=0 / no-temporal-layers / open-gop / min-keyint=25 / keyint=250 / bframes=4 / b-adapt=2 / b-pyramid / bframe-bias=0 / rc-lookahead=20 / lookahead-slices=5 / scenecut=40 / no-intra-refresh / ctu=64 / min-cu-size=8 / no-rect / no-amp / max-tu-size=32 / tu-inter-depth=1 / tu-intra-depth=1 / limit-tu=0 / rdoq-level=0 / dynamic-rd=0.00 / no-ssim-rd / signhide / no-tskip / nr-intra=0 / nr-inter=0 / no-constrained-intra / strong-intra-smoothing / max-merge=2 / limit-refs=3 / no-limit-modes / me=1 / subme=2 / merange=57 / temporal-mvp / weightp / no-weightb / no-analyze-src-pics / deblock=0:0 / sao / no-sao-non-deblock / rd=3 / no-early-skip / rskip / no-fast-intra / no-tskip-fast / no-cu-lossless / no-b-intra / rdpenalty=0 / psy-rd=2.00 / psy-rdoq=0.00 / no-rd-refine / analysis-mode=0 / no-lossless / cbqpoffs=0 / crqpoffs=0 / rc=abr / bitrate=3700 / qcomp=0.60 / qpstep=4 / stats-write=0 / stats-read=2 / cplxblur=20.0 / qblur=0.5 / ipratio=1.40 / pbratio=1.30 / aq-mode=1 / aq-strength=1.00 / cutree / zone-count=0 / no-strict-cbr / qg-size=32 / no-rc-grain / qpmax=69 / qpmin=0 / sar=1 / overscan=0 / videoformat=5 / range=0 / colorprim=2 / transfer=2 / colormatrix=2 / chromaloc=0 / display-window=0 / max-cll=0,0 / min-luma=0 / max-luma=1023 / log2-max-poc-lsb=8 / vui-timing-info / vui-hrd-info / slices=1 / opt-qp-pps / opt-ref-list-length-pps / no-multi-pass-opt-rps / scenecut-bias=0.05 / no-opt-cu-delta-qp / no-aq-motion / no-hdr / no-hdr-opt / refine-level=5 / no-limit-sao
Default : Да
Forced : Нет

Аудио #1
Идентификатор : 2
Формат : AC-3
Формат/Информация : Audio Coding 3
Коммерческое название : Dolby Digital
Идентификатор кодека : A_AC3
Продолжительность : 47 м. 15 с.
Вид битрейта : Постоянный
Битрейт : 640 Кбит/сек
Каналы : 6 каналов
Channel layout : L R C LFE Ls Rs
Частота : 48,0 КГц
Частота кадров : 31,250 кадров/сек (1536 SPF)
Метод сжатия : С потерями
Размер потока : 216 Мбайт (12%)
Заголовок : LostFilm
Язык : Russian
Service kind : Complete Main
Default : Да
Forced : Нет

Аудио #2
Идентификатор : 3
Формат : AC-3
Формат/Информация : Audio Coding 3
Коммерческое название : Dolby Digital
Идентификатор кодека : A_AC3
Продолжительность : 47 м. 15 с.
Вид битрейта : Постоянный
Битрейт : 384 Кбит/сек
Каналы : 6 каналов
Channel layout : L R C LFE Ls Rs
Частота : 48,0 КГц
Частота кадров : 31,250 кадров/сек (1536 SPF)
Метод сжатия : С потерями
Размер потока : 130 Мбайт (7%)
Заголовок : AlexFilm
Язык : Russian
Service kind : Complete Main
Default : Нет
Forced : Нет

Аудио #3
Идентификатор : 4
Формат : AC-3
Формат/Информация : Audio Coding 3
Коммерческое название : Dolby Digital
Идентификатор кодека : A_AC3
Продолжительность : 47 м. 15 с.
Вид битрейта : Постоянный
Битрейт : 384 Кбит/сек
Каналы : 6 каналов
Channel layout : L R C LFE Ls Rs
Частота : 48,0 КГц
Частота кадров : 31,250 кадров/сек (1536 SPF)
Метод сжатия : С потерями
Размер потока : 130 Мбайт (7%)
Заголовок : NewStudio
Язык : Russian
Service kind : Complete Main
Default : Нет
Forced : Нет

Аудио #4
Идентификатор : 5
Формат : AC-3
Формат/Информация : Audio Coding 3
Коммерческое название : Dolby Digital
Идентификатор кодека : A_AC3
Продолжительность : 47 м. 16 с.
Вид битрейта : Постоянный
Битрейт : 384 Кбит/сек
Каналы : 6 каналов
Channel layout : L R C LFE Ls Rs
Частота : 48,0 КГц
Частота кадров : 31,250 кадров/сек (1536 SPF)
Метод сжатия : С потерями
Размер потока : 130 Мбайт (7%)
Заголовок : TVShows
Язык : Russian
Service kind : Complete Main
Default : Нет
Forced : Нет

Текст
Идентификатор : 6
Формат : UTF-8
Идентификатор кодека : S_TEXT/UTF8
Идентификатор кодека/Информация : UTF-8 Plain Text
Продолжительность : 40 м. 48 с.
Битрейт : 105 бит/сек
Count of elements : 560
Размер потока : 31,6 Кбайт (0%)
Заголовок : FOCS
Язык : Russian
Default : Нет
Forced : Нет
скриншот   скриншот   скриншот   скриншот   скриншот   скриншот   скриншот   скриншот  


© Оформление by DD2D3


Marvel's Loki


Год выпуска: 2021
Страна: США
Жанр: фантастика, фэнтези, боевик, драма, комедия

Продолжительность: 6 x ~00:50:00 серия
Перевод: Профессиональный (многоголосый закадровый) | LostFilm
Перевод: Профессиональный (многоголосый закадровый) | AlexFilm
Перевод: Профессиональный (многоголосый закадровый) | NewStudio
Перевод: Профессиональный (многоголосый закадровый) | TVShows
Субтитры: русские | FOCS

Режиссер: Кейт Херрон
В ролях: Том Хиддлстон, Софи Ди Мартино, Ричард Э. Грант, Гугу Эмбата-Ро, Вунми Моссаку, Оуэн Уилсон, Эрика Коулмэн, Саша Лэйн, Джон Ливайн, Люсиус Бастон мл.

Описание:
Локи попадает в таинственную организацию «Управление временными изменениями» после того, как он украл Тессеракт, и путешествует во времени, меняя историю.

Мировая премьера: 9 июня 2021


Качество: WeBRip 1080p Rip by DD2D3
Формат: MKV
Видео: V_MPEGH/ISO/HEVC; 1920x804 (2.40:1); 3668 Kbps; 60 fps; 0,040 bpp
Аудио: русский; AC3; 640 Kbps; CBR; 6 ch ||
Аудио: русский; AC3; 384 Kbps; CBR; 6 ch ||
Аудио: русский; AC3; 384 Kbps; CBR; 6 ch ||
Аудио: русский; AC3; 384 Kbps; CBR; 6 ch ||
Навигация по главам: нет



Общее
Уникальный идентификатор : 242865871980859017385248156523612444708 (0xB6B643F9E3C829AB8883EBCABFA19824)
Полное имя : D:\Marvel TV series Collection (2013 - ......) WeBRip - HEVC 1080p 10 bit 60 FPS\The Marvel Series Collection (Disney+)\Marvel's Loki (2021) WeBRip - HEVC 1080p 10 bit 60 FPS\Season 1. Series 1 - 6 of 6.mkv
Формат : Matroska
Версия формата : Version 4
Размер файла : 1,97 Гбайт
Продолжительность : 51 м. 30 с.
Общий поток : 5 471 Кбит/сек
Название фильма : Rip by from DD2D3
Дата кодирования : UTC 2021-07-04 12:13:20
Программа кодирования : mkvmerge v10.0.0 ('To Drown In You') 32bit
Библиотека кодирования : libebml v1.3.4 + libmatroska v1.4.5
Attachments : poster

Видео
Идентификатор : 1
Формат : HEVC
Формат/Информация : High Efficiency Video Coding
Профиль формата : Main 10@L4.1@Main
Идентификатор кодека : V_MPEGH/ISO/HEVC
Продолжительность : 51 м. 30 с.
Битрейт : 3 669 Кбит/сек
Ширина : 1 920 пикселей
Высота : 804 пикселя
Соотношение сторон : 2,40:1
Режим частоты кадров : Постоянный
Частота кадров : 60,000 кадров/сек
Цветовое пространство : YUV
Субдискретизация насыщенности : 4:2:0
Битовая глубина : 10 бит
Бит/(Пиксели*Кадры) : 0.040
Размер потока : 1,32 Гбайт (67%)
Библиотека кодирования : x265 2.3+33-0b7d54dbb71a87a0:[Windows][MSVC 1800][64 bit] 10bit: KG7x [x265.ru]
Настройки программы : cpuid=1173503 / frame-threads=2 / numa-pools=4 / wpp / no-pmode / no-pme / no-psnr / no-ssim / log-level=2 / input-csp=1 / input-res=1920x804 / interlace=0 / total-frames=185428 / level-idc=41 / high-tier=1 / uhd-bd=0 / ref=3 / no-allow-non-conformance / no-repeat-headers / annexb / no-aud / no-hrd / info / hash=0 / no-temporal-layers / open-gop / min-keyint=25 / keyint=250 / bframes=4 / b-adapt=0 / b-pyramid / bframe-bias=0 / rc-lookahead=15 / lookahead-slices=5 / scenecut=40 / no-intra-refresh / ctu=64 / min-cu-size=8 / no-rect / no-amp / max-tu-size=32 / tu-inter-depth=1 / tu-intra-depth=1 / limit-tu=0 / rdoq-level=0 / dynamic-rd=0.00 / no-ssim-rd / signhide / no-tskip / nr-intra=0 / nr-inter=0 / no-constrained-intra / strong-intra-smoothing / max-merge=2 / limit-refs=3 / no-limit-modes / me=1 / subme=2 / merange=57 / temporal-mvp / weightp / no-weightb / no-analyze-src-pics / deblock=0:0 / sao / no-sao-non-deblock / rd=2 / no-early-skip / rskip / fast-intra / no-tskip-fast / no-cu-lossless / no-b-intra / rdpenalty=0 / psy-rd=2.00 / psy-rdoq=0.00 / no-rd-refine / analysis-mode=0 / no-lossless / cbqpoffs=0 / crqpoffs=0 / rc=abr / bitrate=3700 / qcomp=0.60 / qpstep=4 / stats-write=0 / stats-read=2 / cplxblur=20.0 / qblur=0.5 / ipratio=1.40 / pbratio=1.30 / aq-mode=1 / aq-strength=1.00 / cutree / zone-count=0 / no-strict-cbr / qg-size=32 / no-rc-grain / qpmax=69 / qpmin=0 / sar=1 / overscan=0 / videoformat=5 / range=0 / colorprim=2 / transfer=2 / colormatrix=2 / chromaloc=0 / display-window=0 / max-cll=0,0 / min-luma=0 / max-luma=1023 / log2-max-poc-lsb=8 / vui-timing-info / vui-hrd-info / slices=1 / opt-qp-pps / opt-ref-list-length-pps / no-multi-pass-opt-rps / scenecut-bias=0.05 / no-opt-cu-delta-qp / no-aq-motion / no-hdr / no-hdr-opt / refine-level=5 / no-limit-sao
Default : Да
Forced : Нет

Аудио #1
Идентификатор : 2
Формат : AC-3
Формат/Информация : Audio Coding 3
Коммерческое название : Dolby Digital
Идентификатор кодека : A_AC3
Продолжительность : 51 м. 30 с.
Вид битрейта : Постоянный
Битрейт : 640 Кбит/сек
Каналы : 6 каналов
Channel layout : L R C LFE Ls Rs
Частота : 48,0 КГц
Частота кадров : 31,250 кадров/сек (1536 SPF)
Метод сжатия : С потерями
Размер потока : 236 Мбайт (12%)
Заголовок : LostFilm
Язык : Russian
Service kind : Complete Main
Default : Да
Forced : Нет

Аудио #2
Идентификатор : 3
Формат : AC-3
Формат/Информация : Audio Coding 3
Коммерческое название : Dolby Digital
Идентификатор кодека : A_AC3
Продолжительность : 51 м. 30 с.
Вид битрейта : Постоянный
Битрейт : 384 Кбит/сек
Каналы : 6 каналов
Channel layout : L R C LFE Ls Rs
Частота : 48,0 КГц
Частота кадров : 31,250 кадров/сек (1536 SPF)
Метод сжатия : С потерями
Размер потока : 141 Мбайт (7%)
Заголовок : AlexFilm
Язык : Russian
Service kind : Complete Main
Default : Нет
Forced : Нет

Аудио #3
Идентификатор : 4
Формат : AC-3
Формат/Информация : Audio Coding 3
Коммерческое название : Dolby Digital
Идентификатор кодека : A_AC3
Продолжительность : 51 м. 30 с.
Вид битрейта : Постоянный
Битрейт : 384 Кбит/сек
Каналы : 6 каналов
Channel layout : L R C LFE Ls Rs
Частота : 48,0 КГц
Частота кадров : 31,250 кадров/сек (1536 SPF)
Метод сжатия : С потерями
Размер потока : 141 Мбайт (7%)
Заголовок : NewStudio
Язык : Russian
Service kind : Complete Main
Default : Нет
Forced : Да

Аудио #4
Идентификатор : 5
Формат : AC-3
Формат/Информация : Audio Coding 3
Коммерческое название : Dolby Digital
Идентификатор кодека : A_AC3
Продолжительность : 51 м. 30 с.
Вид битрейта : Постоянный
Битрейт : 384 Кбит/сек
Каналы : 6 каналов
Channel layout : L R C LFE Ls Rs
Частота : 48,0 КГц
Частота кадров : 31,250 кадров/сек (1536 SPF)
Метод сжатия : С потерями
Размер потока : 141 Мбайт (7%)
Заголовок : TVShows
Язык : Russian
Service kind : Complete Main
Default : Нет
Forced : Нет

Текст
Идентификатор : 6
Формат : UTF-8
Идентификатор кодека : S_TEXT/UTF8
Идентификатор кодека/Информация : UTF-8 Plain Text
Продолжительность : 50 м. 5 с.
Битрейт : 88 бит/сек
Count of elements : 563
Размер потока : 32,6 Кбайт (0%)
Заголовок : FOCS
Язык : Russian
Default : Нет
Forced : Нет
скриншот   скриншот   скриншот   скриншот   скриншот   скриншот   скриншот   скриншот  


© Оформление by DD2D3


What If
«Enter the Multiverse of infinite possibilities»


Год выпуска: 2021
Страна: США
Жанр: фантастика, фэнтези, боевик, драма, комедия

Продолжительность: 9 x ~ 00:30:00 серия
Перевод: Профессиональный (многоголосый закадровый) | LostFilm
Перевод: Профессиональный (многоголосый закадровый) | AlexFilm
Перевод: Профессиональный (многоголосый закадровый) | TVShows
Субтитры: русские | FOCS

Режиссер: Брайан Эндрюс
В ролях: Джеффри Райт, Чэдвик Боузмэн, Хейли Этвелл, Доминик Купер, Шон Ганн, Джимон Хонсу, Сэмюэл Л. Джексон, Тоби Джонс, Нил МакДонаф, Майкл Рукер

Описание:
Создатели сериала представляют, что будет, если изменить некоторые важные моменты из жизни персонажей Marvel.

Мировая премьера: 11 августа 2021


Качество: WeBRip 1080p Rip by DD2D3
Формат: MKV
Видео: V_MPEGH/ISO/HEVC; 1920x872 (2.2:1); 3997 Kbps; 60 fps; 0,040 bpp
Аудио: русский; AC3; 384 Kbps; CBR; 6 ch ||
Аудио: русский; AC3; 384 Kbps; CBR; 6 ch ||
Аудио: русский; AC3; 384 Kbps; CBR; 6 ch ||
Навигация по главам: есть



Общее
Уникальный идентификатор : 196871414692321612328436453065594952348 (0x941C0E26804FB94492E0FDAA5F8ADA9C)
Полное имя : D:\Marvel TV series Collection (2013 - ......) WeBRip - HEVC 1080p 10 bit 60 FPS\The Marvel Series Collection (Disney+)\Marvel's What If (2021) WeBRip - HEVC 1080p 10 bit 60 FPS\Season 1. Series 1 - 9 of 9.mkv
Формат : Matroska
Версия формата : Version 4
Размер файла : 1,13 Гбайт
Продолжительность : 31 м. 12 с.
Общий поток : 5 163 Кбит/сек
Название фильма : Rip by from DD2D3
Дата кодирования : UTC 2021-08-23 15:15:18
Программа кодирования : mkvmerge v10.0.0 ('To Drown In You') 32bit
Библиотека кодирования : libebml v1.3.4 + libmatroska v1.4.5
Attachments : poster

Видео
Идентификатор : 1
Формат : HEVC
Формат/Информация : High Efficiency Video Coding
Профиль формата : Main 10@L4.1@Main
Идентификатор кодека : V_MPEGH/ISO/HEVC
Продолжительность : 31 м. 12 с.
Битрейт : 3 998 Кбит/сек
Ширина : 1 920 пикселей
Высота : 872 пикселя
Соотношение сторон : 2,2:1
Режим частоты кадров : Постоянный
Частота кадров : 60,000 кадров/сек
Цветовое пространство : YUV
Субдискретизация насыщенности : 4:2:0
Битовая глубина : 10 бит
Бит/(Пиксели*Кадры) : 0.040
Размер потока : 893 Мбайт (77%)
Библиотека кодирования : x265 2.3+33-0b7d54dbb71a87a0:[Windows][MSVC 1800][64 bit] 10bit: KG7x [x265.ru]
Настройки программы : cpuid=1173503 / frame-threads=2 / numa-pools=4 / wpp / no-pmode / pme / no-psnr / no-ssim / log-level=2 / input-csp=1 / input-res=1920x872 / interlace=0 / total-frames=112371 / level-idc=41 / high-tier=1 / uhd-bd=0 / ref=3 / no-allow-non-conformance / no-repeat-headers / annexb / no-aud / no-hrd / info / hash=0 / no-temporal-layers / open-gop / min-keyint=25 / keyint=250 / bframes=4 / b-adapt=2 / b-pyramid / bframe-bias=0 / rc-lookahead=20 / lookahead-slices=5 / scenecut=40 / no-intra-refresh / ctu=64 / min-cu-size=8 / no-rect / no-amp / max-tu-size=32 / tu-inter-depth=1 / tu-intra-depth=1 / limit-tu=0 / rdoq-level=0 / dynamic-rd=0.00 / no-ssim-rd / signhide / no-tskip / nr-intra=0 / nr-inter=0 / no-constrained-intra / strong-intra-smoothing / max-merge=2 / limit-refs=3 / no-limit-modes / me=1 / subme=2 / merange=57 / temporal-mvp / weightp / no-weightb / no-analyze-src-pics / deblock=0:0 / sao / no-sao-non-deblock / rd=3 / no-early-skip / rskip / no-fast-intra / no-tskip-fast / no-cu-lossless / no-b-intra / rdpenalty=0 / psy-rd=2.00 / psy-rdoq=0.00 / no-rd-refine / analysis-mode=0 / no-lossless / cbqpoffs=0 / crqpoffs=0 / rc=abr / bitrate=4000 / qcomp=0.60 / qpstep=4 / stats-write=0 / stats-read=2 / cplxblur=20.0 / qblur=0.5 / ipratio=1.40 / pbratio=1.30 / aq-mode=1 / aq-strength=1.00 / cutree / zone-count=0 / no-strict-cbr / qg-size=32 / no-rc-grain / qpmax=69 / qpmin=0 / sar=1 / overscan=0 / videoformat=5 / range=0 / colorprim=2 / transfer=2 / colormatrix=2 / chromaloc=0 / display-window=0 / max-cll=0,0 / min-luma=0 / max-luma=1023 / log2-max-poc-lsb=8 / vui-timing-info / vui-hrd-info / slices=1 / opt-qp-pps / opt-ref-list-length-pps / no-multi-pass-opt-rps / scenecut-bias=0.05 / no-opt-cu-delta-qp / no-aq-motion / no-hdr / no-hdr-opt / refine-level=5 / no-limit-sao
Default : Да
Forced : Нет

Аудио #1
Идентификатор : 2
Формат : AC-3
Формат/Информация : Audio Coding 3
Коммерческое название : Dolby Digital
Идентификатор кодека : A_AC3
Продолжительность : 31 м. 12 с.
Вид битрейта : Постоянный
Битрейт : 384 Кбит/сек
Каналы : 2 канала
Channel layout : L R
Частота : 48,0 КГц
Частота кадров : 31,250 кадров/сек (1536 SPF)
Метод сжатия : С потерями
Размер потока : 85,7 Мбайт (7%)
Заголовок : LostFilm
Язык : Russian
Service kind : Complete Main
Default : Да
Forced : Нет

Аудио #2
Идентификатор : 3
Формат : AC-3
Формат/Информация : Audio Coding 3
Коммерческое название : Dolby Digital
Идентификатор кодека : A_AC3
Продолжительность : 31 м. 12 с.
Вид битрейта : Постоянный
Битрейт : 384 Кбит/сек
Каналы : 6 каналов
Channel layout : L R C LFE Ls Rs
Частота : 48,0 КГц
Частота кадров : 31,250 кадров/сек (1536 SPF)
Метод сжатия : С потерями
Размер потока : 85,7 Мбайт (7%)
Заголовок : AlexFilm
Язык : Russian
Service kind : Complete Main
Default : Нет
Forced : Нет

Аудио #3
Идентификатор : 4
Формат : AC-3
Формат/Информация : Audio Coding 3
Коммерческое название : Dolby Digital
Идентификатор кодека : A_AC3
Продолжительность : 31 м. 12 с.
Вид битрейта : Постоянный
Битрейт : 384 Кбит/сек
Каналы : 6 каналов
Channel layout : L R C LFE Ls Rs
Частота : 48,0 КГц
Частота кадров : 31,250 кадров/сек (1536 SPF)
Метод сжатия : С потерями
Размер потока : 85,7 Мбайт (7%)
Заголовок : TVShows
Язык : Russian
Service kind : Complete Main
Default : Нет
Forced : Нет

Текст
Идентификатор : 5
Формат : UTF-8
Идентификатор кодека : S_TEXT/UTF8
Идентификатор кодека/Информация : UTF-8 Plain Text
Продолжительность : 29 м. 18 с.
Битрейт : 100 бит/сек
Count of elements : 326
Размер потока : 21,6 Кбайт (0%)
Заголовок : FOCS
Язык : Russian
Default : Нет
Forced : Нет

Меню
00:29:58.000 : en:Credits
скриншот  скриншот  скриншот  скриншот  


© Оформление by DD2D3


pb.wtf



Скачать Коллекция сериалов Marvel через торрент https://pic1.kartinco.top/new/img/2021-07/27/c6d4wy0dlz2hj637cntws8c2j.jpg Скачать, смотреть онлайн Коллекция сериалов Marvel бесплантно в хорошем качестве Описание: Ванда и Вижн — молодожены, живущие в идиллическом городке Вествью. Поначалу жизнь героев кажется им идеальной, но постепенно они ... 8.7 10 7
Info! Золотая раздача, скачанное не засчитывается.
Торрент: Зарегистрирован [2021-10-11 07:09] · скачан: 8 раз
Статус: √ проверено
Размер: 47.94 GB
Как cкачать? Как скачать Коллекция сериалов Marvel через торрент | UTorrent



Последний раз редактировалось: dd2d3 (2021-10-11 07:09), всего редактировалось 1 раз

28-11-2019 20:33  

Отключить всю рекламу на сайте

14-08-2021 15:19 Коллекция сериалов Marvel Скачать торрент  

раздайте пожалйста. Вообще не качаетpb.wtf



11-10-2021 09:17 Коллекция сериалов Marvel Скачать торрент  

в какой последовательности смотреть ?pb.wtf



11-10-2021 09:47 Коллекция сериалов Marvel Скачать торрент  

1. Локи ( сюжет идет 2012 году)
2. Ванда/Вижен ( сюжет идет после Мстителей: Финал)
3. Сокол и Зимний солдат ( сюжет идет после Мстителей: Финал)
4. Что если ( знакомство с мультивселенной)

https://marvelcinematicuniverse.fandom.com/ru/wiki/Хронология вот ссылка хронологииpb.wtf



24-10-2021 15:07 Коллекция сериалов Marvel Скачать торрент  

Да блин, раздайте люди кто нибудь эту раздачу на эти сериалы блин. Нифига ж не качает!pb.wtf



    Дорогой пользователь! Огромная просьба, поблагодарите релизера, оцените раздачу и оставьте свои комментарий, если Вы скачали Коллекция сериалов Marvel через торрент бесплатно!
    Комментировать посты могут только пользователи прошедшие не сложную регистрацию
    Показать сообщения:    

    Коллекция сериалов Marvel через торрент
    Скачать бесплатно Коллекция сериалов Marvel
    Коллекция сериалов Marvel скачать торрент
    Коллекция сериалов Marvel смотреть онлайн
    Cкачать фильм Коллекция сериалов Marvel бесплатно
    Коллекция сериалов Marvel скачать торрент в хорошем качестве
    Коллекция сериалов Marvel смотреть онлайн бесплатно в хорошем качестве


    Вы не можете начинать темы
    Вы не можете отвечать на сообщения
    Вы не можете редактировать свои сообщения
    Вы не можете удалять свои сообщения
    Вы не можете голосовать в опросах
    Вы не можете прикреплять файлы к сообщениям
    Вы можете скачивать файлы