Присоединяйтесь к нам в Telegram!, здесь всегда актуальный адрес сайта, оперативная поддержка и многое другое!!

>

5.9

iTunes

7.4

iTunes

9.4

1 сезон

1

7.4

2 сезон

7.2

iTunes

7.3

1 сезон

13

6.1

iTunes

8.3

GOG

30

ULTIMATE

pack

9.9

Лицензия

ВАЖНО

ИГРА 18+

pack

7.3

RePack

MK11

7.7

RePack

jed

7.8

RePack

fifa19

8.5

RePack

RDR2

RePack

NEED FOR SPEED™ PAYBACK

5 сезон

9 сезон

Бесстыжие 9 сезон

Все сериалы

все сериалы на PB.wtf

RePack

FAR CRY 5

Anonymous, доброй ночи, мы катастрофически не успеваем собрать деньги на оплату серверов, помогите нам пожалуйста 5,10,15р., для нас важна любая помощь . В качестве благодарности мы отключим Вам всю рекламу на сайте (укажите свой ник в строку Ваше имя)!

×
  
Magnet ссылка

Убийство онлайн / Дома безопаснее / Safer at Home (Уилл Верник) [2021, Триллер, BDRip 1080p] DUB [Кинопоиск HD] pb.wtf

Убийство онлайн через торрент pb.wtf

Размер: 7.11 GB | Добавлен: 9 д. назад | Торрент скачан:23 раза
Смотреть онлайн Убийство онлайн | Скачать    Ребята, помогите собрать деньги на оплату серверов!!!

29-07-2021 03:04 Убийство онлайн Скачать торрент  

Убийство онлайн | Дома безопаснее | Safer at Home
Год выпуска: 2021
Страна: США
Студия: 7930 Entertainment, Showdown Productions, Voltage Pictures
Жанр: Триллер
Продолжительность: 01:24:45
Перевод: Дублированный | Кинопоиск HD
Субтитры: Английские

Режиссер: Уилл Верник

rating

В ролях: Джослин Хадон, Эмма Лахана, Элиса Эллепач, Эдвин Браун, Дэн Дж. Джонсон, Майкл Куписк, Дэниэл Робер, Лия Бозонелис, Кэти Л. Холл, Марк Ирвингсен

Описание: Распространяющаяся пандемия коронавируса вызывает настоящий хаос в Лос-Анджелесе, а город трансформируется в штат полицейских. Главные герои устраивают вечеринку онлайн в зуме, чтобы играть всю ночь в видеоигры, пробовать наркотики и спиртное. Но после употребления экстази их жизнь дома превращается в ужас.

Качество: BDRip 1080p
Формат: MKV

Видео: MPEG-4 AVC, 1920x1014, 11.0 Mbit/s, 23.976 fps
Аудио #01: 48 kHz, AC3, 5.1, 384 Kbps | Дублированный | Кинопоиск HD | RUS |
Аудио #02: 48 kHz, AC3, 5.1, 640 Kbps | Оригинал | ENG |
скриншот  скриншот  скриншот  скриншот  скриншот  

General
Unique ID : 2248643988914482960826412728805813637 (0x1B112B55263F730C67DE8E76494ED85)
Complete name : E:VideoSafer.at.Home.2021.BDRip.1080p.seleZen.mkv
Format : Matroska
Format version : Version 4
File size : 7.11 GiB
Duration : 1 h 24 min
Overall bit rate : 12.0 Mb/s
Movie name : Safer at Home 2021 from seleZen
Encoded date : UTC 2021-11-22 06:48:36
Writing application : mkvmerge v59.0.0 ('Shining Star') 64-bit
Writing library : libebml v1.4.2 + libmatroska v1.6.4

Video
ID : 1
Format : AVC
Format/Info : Advanced Video Codec
Format profile : High@L4.1
Format settings : CABAC / 4 Ref Frames
Format settings, CABAC : Yes
Format settings, Reference frames : 4 frames
Codec ID : V_MPEG4/ISO/AVC
Duration : 1 h 24 min
Bit rate : 11.0 Mb/s
Width : 1 920 pixels
Height : 1 014 pixels
Display aspect ratio : 1.893
Frame rate mode : Constant
Frame rate : 23.976 (24000/1001) FPS
Color space : YUV
Chroma subsampling : 4:2:0
Bit depth : 8 bits
Scan type : Progressive
Bits/(Pixel*Frame) : 0.236
Stream size : 6.50 GiB (91%)
Writing library : x264 core 146 -from seleZen
Encoding settings : cabac=1 / ref=4 / deblock=1:-3:-3 / analyse=0x3:0x133 / me=umh / subme=11 / psy=1 / psy_rd=1.03:0.03 / mixed_ref=1 / me_range=32 / chroma_me=1 / trellis=2 / 8x8dct=1 / cqm=0 / deadzone=21,11 / fast_pskip=0 / chroma_qp_offset=-3 / threads=36 / lookahead_threads=6 / sliced_threads=0 / nr=0 / decimate=0 / interlaced=0 / bluray_compat=0 / constrained_intra=0 / bframes=9 / b_pyramid=2 / b_adapt=2 / b_bias=0 / direct=3 / weightb=1 / open_gop=0 / weightp=2 / keyint=240 / keyint_min=23 / scenecut=40 / intra_refresh=0 / rc_lookahead=50 / rc=2pass / mbtree=0 / bitrate=11000 / ratetol=1.0 / qcomp=0.60 / qpmin=0 / qpmax=51 / qpstep=4 / cplxblur=20.0 / qblur=0.5 / vbv_maxrate=50000 / vbv_bufsize=62500 / nal_hrd=none / filler=0 / ip_ratio=1.40 / pb_ratio=1.30 / aq=3:0.80
Language : English
Default : Yes
Forced : No

Audio #1
ID : 2
Format : AC-3
Format/Info : Audio Coding 3
Commercial name : Dolby Digital
Codec ID : A_AC3
Duration : 1 h 24 min
Bit rate mode : Constant
Bit rate : 384 kb/s
Channel(s) : 6 channels
Channel layout : L R C LFE Ls Rs
Sampling rate : 48.0 kHz
Frame rate : 31.250 FPS (1536 SPF)
Compression mode : Lossy
Stream size : 233 MiB (3%)
Title : Dub
Language : Russian
Service kind : Complete Main
Default : Yes
Forced : Yes

Audio #2
ID : 3
Format : AC-3
Format/Info : Audio Coding 3
Commercial name : Dolby Digital
Codec ID : A_AC3
Duration : 1 h 24 min
Bit rate mode : Constant
Bit rate : 640 kb/s
Channel(s) : 6 channels
Channel layout : L R C LFE Ls Rs
Sampling rate : 48.0 kHz
Frame rate : 31.250 FPS (1536 SPF)
Compression mode : Lossy
Stream size : 388 MiB (5%)
Title : Original
Language : English
Service kind : Complete Main
Default : No
Forced : No

Text
ID : 4
Format : UTF-8
Codec ID : S_TEXT/UTF8
Codec ID/Info : UTF-8 Plain Text
Duration : 1 h 22 min
Bit rate : 150 b/s
Count of elements : 571
Stream size : 90.2 KiB (0%)
Title : Full
Language : English
Default : No
Forced : No

Menu
00:00:00.000 : Глава 01
00:10:37.095 : Глава 02
00:20:52.334 : Глава 03
00:31:51.201 : Глава 04
00:43:11.047 : Глава 05
00:51:24.248 : Глава 06
01:01:49.831 : Глава 07
01:11:53.559 : Глава 08
01:22:16.014 : Глава 09

pb.wtf



Скачать Убийство онлайн через торрент https://i115.fastpic.org/big/2021/0728/08/0b15629b18dc09f3d60e112ad388b008.jpg Скачать, смотреть онлайн Убийство онлайн бесплантно в хорошем качестве Описание: Распространяющаяся пандемия коронавируса вызывает настоящий хаос в Лос-Анджелесе, а город трансформируется в штат полицейских. ... 7.8 10 4
Торрент: Зарегистрирован [2021-11-22 17:44] · скачан: 23 раз
Статус: √ проверено
Размер: 7.11 GB
Как cкачать? Как скачать Убийство онлайн через торрент | UTorrent

% Раздел Тема Автор DL S | L
Фильмы (Blu-ray, BD-Remux, HDDVD) [ 14.87 GB ] Убийство онлайн / Дома безопаснее / Safer at Home [2021 BD Remux 1080p] DUB [Кинопоиск HD] bober100 Скачать
1 | 0
Фильмы 2021 [DVDrip, WEB-DLRip, HDrip] (DUB, MVO) [ 1.43 GB ] Убийство онлайн / Дома безопаснее / Safer at Home [2021 BDRip] DUB [Кинопоиск HD] bober100 Скачать
3 | 0


Последний раз редактировалось: bober100 (2021-11-22 18:17), всего редактировалось 4 раз(а)

28-11-2019 20:33  

Отключить всю рекламу на сайте

29-07-2021 11:59 Убийство онлайн Скачать торрент  

"...город трансформируется в штат полицейских..."
Превращается в полицейское государство, не?pb.wtf



22-11-2021 18:25 Убийство онлайн Скачать торрент  

Надо было момент нюхать pb.wtf



    Дорогой пользователь! Огромная просьба, поблагодарите релизера, оцените раздачу и оставьте свои комментарий, если Вы скачали Убийство онлайн через торрент бесплатно!
    Комментировать посты могут только пользователи прошедшие не сложную регистрацию
    Показать сообщения:    

    Убийство онлайн через торрент
    Скачать бесплатно Убийство онлайн
    Убийство онлайн скачать торрент
    Убийство онлайн смотреть онлайн
    Cкачать фильм Убийство онлайн бесплатно
    Убийство онлайн скачать торрент в хорошем качестве
    Убийство онлайн смотреть онлайн бесплатно в хорошем качестве


    Вы не можете начинать темы
    Вы не можете отвечать на сообщения
    Вы не можете редактировать свои сообщения
    Вы не можете удалять свои сообщения
    Вы не можете голосовать в опросах
    Вы не можете прикреплять файлы к сообщениям
    Вы можете скачивать файлы