Присоединяйтесь к нам в Telegram!, здесь всегда актуальный адрес сайта, оперативная поддержка и многое другое!!

>

5.9

iTunes

7.4

iTunes

9.4

1 сезон

1

7.4

2 сезон

7.2

iTunes

7.3

1 сезон

13

6.1

iTunes

8.3

GOG

30

ULTIMATE

pack

9.9

Лицензия

ВАЖНО

ИГРА 18+

pack

7.3

RePack

MK11

7.7

RePack

jed

7.8

RePack

fifa19

8.5

RePack

RDR2

RePack

NEED FOR SPEED™ PAYBACK

5 сезон

9 сезон

Бесстыжие 9 сезон

Все сериалы

все сериалы на PB.wtf

RePack

FAR CRY 5

Anonymous, доброе утро, мы катастрофически не успеваем собрать деньги на оплату серверов, помогите нам пожалуйста 5,10,15р., для нас важна любая помощь . В качестве благодарности мы отключим Вам всю рекламу на сайте (укажите свой ник в строку Ваше имя)!

×
  
Magnet ссылка

Последний наемник / Le dernier mercenaire / The Last Mercenary (Давид Шарон) [2021, Боевик, комедия, WEB-DLRip-AVC] DUB [Netflix] от MediaBit pb.wtf

Последний наемник через торрент pb.wtf

Размер: 2.63 GB | Добавлен: 3 мес. 30 д. назад | Торрент скачан:33 раза
Смотреть онлайн Последний наемник | Скачать    Ребята, помогите собрать деньги на оплату серверов!!!

30-07-2021 18:28 Последний наемник Скачать торрент  


Последний наемник / Le dernier mercenaire / The Last Mercenary
Информация о фильме:
Название: Последний наемник
Оригинальное название: Le dernier mercenaire / The Last Mercenary
Год выхода: 2021
Жанр: Боевик, комедия
Режиссер: Давид Шарон
В ролях: Жан-Клод Ван Дамм, Альбан Иванов, Самир Декацца, Асса Силла, Эрик Жюдор, Миу-Миу, Патрик Тимси, Валери Каприски, Мишель Кремадес, Джимо

Описание: Осуждённый тайный агент вынужден вернуться во Францию, чтобы спасти своего сына, которого подставила международная террористическая организация.



Страна: Франция
Студия: Forecast Pictures, Other Angle Pictures
Продолжительность: 01:52:26
Перевод: Дублированный - Netflix



Информация о файле:
Кодек: AVC
Формат: MKV
Качество: WEB-DLRip-AVC
Видео: MPEG-4 AVC, 1024x512, 24.000 fps, 1999 kbps
Аудио RU: AC3, 6 ch, 48 kHz, 448 kbps
Аудио FRE: AC3, 6 ch, 48 kHz, 448 kbps
Аудио UKR: AC3, 6 ch, 48 kHz, 448 kbps
Субтитры: Русские (Forced, full), украинские (Forced, full), английские

x264 info: frame I:1617 Avg QP:13.94 size: 77785
x264 info: frame P:42141 Avg QP:18.24 size: 21485
x264 info: frame B:118162 Avg QP:21.28 size: 5170
General
Unique ID : 244134053645807638156993182262299573208 (0xB7AA8228DE70E1A4101085228845BBD8)
Complete name : D:uTorrentРипы wolf1245Paslednij.Najomnik.2021.DUB.WEB-DLRip-AVC.[wolf1245.MediaBit]-.mkv
Format : Matroska
Format version : Version 4
File size : 2.63 GiB
Duration : 1 h 52 min
Overall bit rate : 3 346 kb/s
Movie name : Paslednij.Najomnik.2021.DUB.WEB-DLRip-AVC.[wolf1245.MediaBit]
Encoded date : UTC 2021-07-30 18:14:20
Writing application : mkvmerge v59.0.0 ('Shining Star') 64-bit
Writing library : libebml v1.4.2 + libmatroska v1.6.4

Video
ID : 1
Format : AVC
Format/Info : Advanced Video Codec
Format profile : High@L4.1
Format settings : CABAC / 12 Ref Frames
Format settings, CABAC : Yes
Format settings, Reference frames : 12 frames
Codec ID : V_MPEG4/ISO/AVC
Duration : 1 h 52 min
Bit rate : 1 999 kb/s
Width : 1 024 pixels
Height : 512 pixels
Display aspect ratio : 2.000
Frame rate mode : Constant
Frame rate : 24.000 FPS
Color space : YUV
Chroma subsampling : 4:2:0
Bit depth : 8 bits
Scan type : Progressive
Bits/(Pixel*Frame) : 0.159
Stream size : 1.57 GiB (60%)
Title : .[wolf1245.MediaBit]
Writing library : x264 core 157 r2958 57baac4
Encoding settings : cabac=1 / ref=12 / deblock=1:-3:-2 / analyse=0x3:0x133 / me=umh / subme=10 / psy=1 / psy_rd=0.97:0.05 / mixed_ref=1 / me_range=32 / chroma_me=1 / trellis=2 / 8x8dct=1 / cqm=0 / deadzone=21,11 / fast_pskip=1 / chroma_qp_offset=-3 / threads=10 / lookahead_threads=2 / sliced_threads=0 / nr=0 / decimate=1 / interlaced=0 / bluray_compat=0 / constrained_intra=0 / bframes=10 / b_pyramid=2 / b_adapt=2 / b_bias=0 / direct=3 / weightb=1 / open_gop=0 / weightp=2 / keyint=240 / keyint_min=24 / scenecut=40 / intra_refresh=0 / rc_lookahead=60 / rc=2pass / mbtree=1 / bitrate=1999 / ratetol=1.0 / qcomp=0.60 / qpmin=0 / qpmax=69 / qpstep=4 / cplxblur=20.0 / qblur=0.5 / vbv_maxrate=50000 / vbv_bufsize=62500 / nal_hrd=none / filler=0 / ip_ratio=1.40 / aq=3:0.80
Language : English
Default : Yes
Forced : No

Audio #1
ID : 2
Format : AC-3
Format/Info : Audio Coding 3
Commercial name : Dolby Digital
Codec ID : A_AC3
Duration : 1 h 52 min
Bit rate mode : Constant
Bit rate : 448 kb/s
Channel(s) : 6 channels
Channel layout : L R C LFE Ls Rs
Sampling rate : 48.0 kHz
Frame rate : 31.250 FPS (1536 SPF)
Compression mode : Lossy
Stream size : 360 MiB (13%)
Title : DUB | Netflix
Language : Russian
Service kind : Complete Main
Default : Yes
Forced : No

Audio #2
ID : 3
Format : AC-3
Format/Info : Audio Coding 3
Commercial name : Dolby Digital
Codec ID : A_AC3
Duration : 1 h 52 min
Bit rate mode : Constant
Bit rate : 448 kb/s
Channel(s) : 6 channels
Channel layout : L R C LFE Ls Rs
Sampling rate : 48.0 kHz
Frame rate : 31.250 FPS (1536 SPF)
Compression mode : Lossy
Stream size : 360 MiB (13%)
Title : UKR
Language : Ukrainian
Service kind : Complete Main
Default : No
Forced : No

Audio #3
ID : 4
Format : AC-3
Format/Info : Audio Coding 3
Commercial name : Dolby Digital
Codec ID : A_AC3
Duration : 1 h 52 min
Bit rate mode : Constant
Bit rate : 448 kb/s
Channel(s) : 6 channels
Channel layout : L R C LFE Ls Rs
Sampling rate : 48.0 kHz
Frame rate : 31.250 FPS (1536 SPF)
Compression mode : Lossy
Stream size : 360 MiB (13%)
Title : FRE
Language : French
Service kind : Complete Main
Default : No
Forced : No

Text #1
ID : 5
Format : UTF-8
Codec ID : S_TEXT/UTF8
Codec ID/Info : UTF-8 Plain Text
Duration : 1 h 50 min
Bit rate : 3 b/s
Count of elements : 65
Stream size : 2.92 KiB (0%)
Title : Forced
Language : Russian
Default : Yes
Forced : Yes

Text #2
ID : 6
Format : UTF-8
Codec ID : S_TEXT/UTF8
Codec ID/Info : UTF-8 Plain Text
Duration : 1 h 50 min
Bit rate : 96 b/s
Count of elements : 1679
Stream size : 78.4 KiB (0%)
Title : Russian
Language : Russian
Default : No
Forced : No

Text #3
ID : 7
Format : UTF-8
Codec ID : S_TEXT/UTF8
Codec ID/Info : UTF-8 Plain Text
Duration : 1 h 50 min
Bit rate : 3 b/s
Count of elements : 67
Stream size : 2.66 KiB (0%)
Title : Forced
Language : Ukrainian
Default : No
Forced : No

Text #4
ID : 8
Format : UTF-8
Codec ID : S_TEXT/UTF8
Codec ID/Info : UTF-8 Plain Text
Duration : 1 h 50 min
Bit rate : 88 b/s
Count of elements : 1677
Stream size : 71.8 KiB (0%)
Title : Ukrainian
Language : Ukrainian
Default : No
Forced : No

Text #5
ID : 9
Format : UTF-8
Codec ID : S_TEXT/UTF8
Codec ID/Info : UTF-8 Plain Text
Duration : 1 h 49 min
Bit rate : 60 b/s
Count of elements : 1569
Stream size : 48.1 KiB (0%)
Title : English
Language : English
Default : No
Forced : No
&

Автор релиза:
pb.wtf



Скачать Последний наемник через торрент https://i115.fastpic.org/big/2021/0730/98/3ff78f8cd064caab4258858aeef64398.jpg Скачать, смотреть онлайн Последний наемник бесплантно в хорошем качестве Описание: Осуждённый тайный агент вынужден вернуться во Францию, чтобы спасти своего сына, которого подставила международная ... 10 10 4
Торрент: Зарегистрирован [2021-07-30 18:28] · скачан: 33 раз
Статус: √ проверено
Размер: 2.63 GB
Как cкачать? Как скачать Последний наемник через торрент | UTorrent

28-11-2019 20:33  

Отключить всю рекламу на сайте

    Дорогой пользователь! Огромная просьба, поблагодарите релизера, оцените раздачу и оставьте свои комментарий, если Вы скачали Последний наемник через торрент бесплатно!
    Комментировать посты могут только пользователи прошедшие не сложную регистрацию
    Показать сообщения:    

    Последний наемник через торрент
    Скачать бесплатно Последний наемник
    Последний наемник скачать торрент
    Последний наемник смотреть онлайн
    Cкачать фильм Последний наемник бесплатно
    Последний наемник скачать торрент в хорошем качестве
    Последний наемник смотреть онлайн бесплатно в хорошем качестве


    Вы не можете начинать темы
    Вы не можете отвечать на сообщения
    Вы не можете редактировать свои сообщения
    Вы не можете удалять свои сообщения
    Вы не можете голосовать в опросах
    Вы не можете прикреплять файлы к сообщениям
    Вы можете скачивать файлы