>

5.6

iTunes

6.1

MVO

5.7

MVO

1

7.4

1 сезон

6.8

iTunes

7.2

1 сезон

13

6.7

1 сезон

8.3

RePack

30

Deluxe

pack

9.9

Лицензия

ВАЖНО

ИГРА 18+

pack

7.3

RePack

MK11

7.7

RePack

jed

7.8

RePack

fifa19

8.5

RePack

RDR2

RePack

NEED FOR SPEED™ PAYBACK

4 сезон

9 сезон

Бесстыжие 9 сезон

Все сериалы

все сериалы на PB.wtf

RePack

FAR CRY 5

Anonymous, доброй ночи, мы катастрофически не успеваем собрать деньги на оплату серверов, помогите нам пожалуйста 5,10,15р., для нас важна любая помощь . В качестве благодарности мы отключим Вам всю рекламу на сайте (укажите свой ник в строку Ваше имя)!

×
  
Magnet ссылка

Наркоман Павлик / Сезон: 8 / Серии: 1-8 из 10 (Павел Радонцев) [2021, комедия, короткометражный, WEB-DL 1080p] pb.wtf

Наркоман Павлик через торрент pb.wtf

Размер: 3.59 GB | Добавлен: 5 д. назад | Торрент скачан:10 раз
Смотреть онлайн Наркоман Павлик | Скачать    Ребята, помогите собрать деньги на оплату серверов!!!

01-08-2021 13:07 Наркоман Павлик Скачать торрент  

Наркоман Павлик Год выпуска: 2021
Страна: Россия
Жанр: комедия, короткометражный
Продолжительность: ~00:35:00
Перевод: Не требуется
Субтитры: отсутствуют

Режиссер: Павел Радонцев

В ролях: Павел Радонцев, Денис Гущин, Кирилл Демидов, Антон Батищев, Илья Сорокин, Андрей Савицкий, Регина Вожова, Иван Солдаткин, Ольга Лапушкина, Михаил Мартынов, Хамид Дышниев, Андрей Мирославский, Артём Веретенников, Николай Гусляров

Описание: Короткометражный, юмористический сериал о приключениях Павлика, от участников проектов Comedy Club Samara Style, Comedy Club Saint-Petersburg. Сериал стремительно набирает популярность, фразы Павлика всё чаще встречаются на просторах рунета. "Здорова братиш!" - если вы слышали это и не знали откуда, смотрите. Очень угарная и ржачная тема!



Качество: WEB-DL 1080p
Формат: MKV

Видео: VP9, ~ 1979 Кбит/с, 1920x960, 30 кадр/с
Аудио: AC3, 2 ch, 192 Кбит/с
скриншот  скриншот  скриншот  скриншот  

Общее
Уникальный идентификатор : 128157466824297888047786069225422258342 (0x606A3AF4A3370CA58A02F468B58500A6)
Полное имя : PAVLIK.S08E01.2021.WEBRip.1080p.OLEG270877.mkv
Формат : Matroska
Версия формата : Version 4
Размер файла : 564 Мбайт
Продолжительность : 36 м. 16 с.
Общий поток : 2 173 Кбит/сек
Дата кодирования : UTC 2021-08-01 10:12:18
Программа кодирования : mkvmerge v60.0.0 ('Are We Copies?') 64-bit
Библиотека кодирования : libebml v1.4.2 + libmatroska v1.6.4 / Lavf58.29.100

Видео
Идентификатор : 1
Формат : VP9
Идентификатор кодека : V_VP9
Продолжительность : 36 м. 16 с.
Битрейт : 1 979 Кбит/сек
Ширина : 1 920 пикселей
Высота : 960 пикселей
Соотношение сторон : 2,000
Режим частоты кадров : Постоянный
Частота кадров : 30,000 кадров/сек
Цветовое пространство : YUV
Бит/(Пиксели*Кадры) : 0.036
Размер потока : 514 Мбайт (91%)
Default : Да
Forced : Нет
Цветовой диапазон : Limited
Основные цвета : BT.709
Характеристики трансфера : BT.709
Коэффициенты матрицы : BT.709

Аудио
Идентификатор : 2
Формат : AC-3
Формат/Информация : Audio Coding 3
Коммерческое название : Dolby Digital
Идентификатор кодека : A_AC3
Продолжительность : 36 м. 16 с.
Вид битрейта : Постоянный
Битрейт : 192 Кбит/сек
Каналы : 2 канала
Channel layout : L R
Частота : 48,0 КГц
Частота кадров : 31,250 кадров/сек (1536 SPF)
Метод сжатия : С потерями
Размер потока : 49,8 Мбайт (9%)
Default : Да
Forced : Нет

pb.wtf



Скачать Наркоман Павлик через торрент https://i115.fastpic.org/big/2021/0801/b9/8d0484eb00711ae668619d84ac00f8b9.jpg Скачать, смотреть онлайн Наркоман Павлик бесплантно в хорошем качестве Описание: Короткометражный, юмористический сериал о приключениях Павлика, от участников проектов Comedy Club Samara Style, Comedy Club ... 8.8 10 12
Торрент: Зарегистрирован [2021-09-19 13:17] · скачан: 10 раз
Статус: √ проверено
Размер: 3.59 GB
Как cкачать? Как скачать Наркоман Павлик через торрент | UTorrent



Последний раз редактировалось: bober100 (2021-09-19 13:17), всего редактировалось 1 раз

28-11-2019 20:33  

Отключить всю рекламу на сайте

13-09-2021 09:00 Наркоман Павлик Скачать торрент  

Ужас...pb.wtf



13-09-2021 13:02 Наркоман Павлик Скачать торрент  

чё за негатиив?pb.wtf



13-09-2021 14:04 Наркоман Павлик Скачать торрент  

Про меня сериал сняли, я даже не знал pb.wtf



    Дорогой пользователь! Огромная просьба, поблагодарите релизера, оцените раздачу и оставьте свои комментарий, если Вы скачали Наркоман Павлик через торрент бесплатно!
    Комментировать посты могут только пользователи прошедшие не сложную регистрацию
    Показать сообщения:    

    Наркоман Павлик через торрент
    Скачать бесплатно Наркоман Павлик
    Наркоман Павлик скачать торрент
    Наркоман Павлик смотреть онлайн
    Cкачать фильм Наркоман Павлик бесплатно
    Наркоман Павлик скачать торрент в хорошем качестве
    Наркоман Павлик смотреть онлайн бесплатно в хорошем качестве


    Вы не можете начинать темы
    Вы не можете отвечать на сообщения
    Вы не можете редактировать свои сообщения
    Вы не можете удалять свои сообщения
    Вы не можете голосовать в опросах
    Вы не можете прикреплять файлы к сообщениям
    Вы можете скачивать файлы