Доктор Стрэндж

Лицензия

Добыча

Дубляж

Дом дракона

1 сезон

Тор

Дубляж

В эфире

Дубляж

Там, где раки поют

MVO

Властелин колец

1 сезон

GLOBAL

pack

Рекомендуем

30

Пиратка

ВАЖНО

ВАЖНО

Ghostwire

Пиратка

jed

RePack

nioh2

RePack

RDR2

RePack

NEED FOR SPEED™ PAYBACK

RePack

скачать торрент

Кинопоиск HD

Острые козырьки 6 сезон

6 сезон

FAR CRY 6

RePack

скачать торрент

Лицензия

скачать торрент

MVO

1

1 сезон

скачать торрент

1 сезон

скачать торрент

Лицензия

  

Бок о бок / Торговый пункт / Trading Paint (Каржан Кадер) [2019, Боевик, триллер, драма, спорт, BD Remux 1080p] MVO [iTunes]

Бок о бок через торрент pb.wtf

Размер: 19.89 GB | Добавлен: 1 год 3 мес. назад | Торрент скачан:6 раз
Смотреть онлайн | Скачать   

02-08-2021 04:49 Бок о бок Скачать торрент  

Бок о бок | Торговый пункт | Trading Paint
Год выпуска: 2019
Страна: Испания, США
Студия: Elipsis Capital, Premiere Picture, Sculptor Media
Жанр: Боевик, триллер, драма, спорт
Продолжительность: 01:27:15
Перевод: Профессиональный (многоголосый) | iTunes
Субтитры: Английские

Режиссер: Каржан Кадер

rating

В ролях: Джон Траволта, Шенайя Твейн, Тоби Себастьян, Розабелла Лауренти Селлерс, Кевин Данн, Майкл Мэдсен, Джоя Либардони, Маргарет Боуман

Описание: Кэм — сын легендарного автогонщика Сэма Монро, переставшего выступать несколько лет назад. Выбрав путь отца, он участвует в заездах в его команде, но не может победить. После очередного поражения Кэм присоединяется к команде конкурентов. Этот поступок обескураживает отца, возлагавшего на сына большие надежды, и тогда он решает снова надеть гоночную форму, чтобы противостоять Кэму на трассе.

Качество: BD Remux 1080p
Формат: MKV

Видео: MPEG-4 AVC, 1920x1080, 28.4 Mbit/s, 23.976 fps
Аудио #01: 48 kHz, AC3, 5.1, 384 Kbps | iTunes | RUS |
Аудио #02: 48 kHz, DTS-HD MA, 5.1, 3833 Kbps | Оригинал | ENG |
скриншот  скриншот  скриншот  скриншот  скриншот  

General
Unique ID : 165093065739339962205870451050292063772 (0x7C33C4948EBC7F27844D54F41A5A2E1C)
Complete name : G:VideoTrading.Paint.2019.BDREMUX.1080p.seleZen.mkv
Format : Matroska
Format version : Version 4
File size : 19.9 GiB
Duration : 1 h 27 min
Overall bit rate mode : Variable
Overall bit rate : 32.6 Mb/s
Movie name : Trading Paint 2019 from seleZen
Encoded date : UTC 2021-07-19 01:17:54
Writing application : mkvmerge v53.0.0 ('Fool's Gold') 64-bit
Writing library : libebml v1.4.1 + libmatroska v1.6.2

Video
ID : 1
Format : AVC
Format/Info : Advanced Video Codec
Format profile : [email protected]
Format settings : CABAC / 4 Ref Frames
Format settings, CABAC : Yes
Format settings, Reference : 4 frames
Codec ID : V_MPEG4/ISO/AVC
Duration : 1 h 27 min
Bit rate mode : Variable
Bit rate : 28.4 Mb/s
Maximum bit rate : 37.0 Mb/s
Width : 1 920 pixels
Height : 1 080 pixels
Display aspect ratio : 16:9
Frame rate mode : Constant
Frame rate : 23.976 (24000/1001) FPS
Color space : YUV
Chroma subsampling : 4:2:0
Bit depth : 8 bits
Scan type : Progressive
Bits/(Pixel*Frame) : 0.572
Stream size : 17.3 GiB (87%)
Language : English
Default : Yes
Forced : No

Audio #1
ID : 2
Format : AC-3
Format/Info : Audio Coding 3
Commercial name : Dolby Digital
Codec ID : A_AC3
Duration : 1 h 27 min
Bit rate mode : Constant
Bit rate : 384 kb/s
Channel(s) : 6 channels
Channel layout : L R C LFE Ls Rs
Sampling rate : 48.0 kHz
Frame rate : 31.250 FPS (1536 SPF)
Compression mode : Lossy
Stream size : 240 MiB (1%)
Title : iTunes
Language : Russian
Service kind : Complete Main
Default : Yes
Forced : Yes

Audio #2
ID : 3
Format : DTS XLL
Format/Info : Digital Theater Systems
Commercial name : DTS-HD Master Audio
Codec ID : A_DTS
Duration : 1 h 27 min
Bit rate mode : Variable
Bit rate : 3 833 kb/s
Channel(s) : 6 channels
Channel layout : C L R Ls Rs LFE
Sampling rate : 48.0 kHz
Frame rate : 93.750 FPS (512 SPF)
Bit depth : 24 bits
Compression mode : Lossless
Stream size : 2.34 GiB (12%)
Title : Original
Language : English
Default : No
Forced : No

Text
ID : 4
Format : UTF-8
Codec ID : S_TEXT/UTF8
Codec ID/Info : UTF-8 Plain Text
Duration : 1 h 24 min
Bit rate : 68 b/s
Count of elements : 1085
Stream size : 42.3 KiB (0%)
Title : Full
Language : English
Default : No
Forced : No

Menu
00:00:00.000 : en:Chapter 1
00:06:09.410 : en:Chapter 2
00:09:57.179 : en:Chapter 3
00:15:44.026 : en:Chapter 4
00:20:36.610 : en:Chapter 5
00:26:46.563 : en:Chapter 6
00:33:00.645 : en:Chapter 7
00:38:24.885 : en:Chapter 8
00:42:32.007 : en:Chapter 9
00:45:46.034 : en:Chapter 10
00:49:54.950 : en:Chapter 11
00:55:05.593 : en:Chapter 12
01:00:53.107 : en:Chapter 13
01:04:55.933 : en:Chapter 14
01:08:54.338 : en:Chapter 15
01:12:28.302 : en:Chapter 16




Скачать Бок о бок через торрент https://c.radikal.ru/c06/2107/36/c48c16e860d9.jpg Скачать, смотреть онлайн Бок о бок бесплантно в хорошем качестве Описание: Кэм — сын легендарного автогонщика Сэма Монро, переставшего выступать несколько лет назад. Выбрав путь отца, он участвует в ... 10 10 3
Торрент: Зарегистрирован [2021-08-02 04:49] · скачан: 6 раз
Статус: √ проверено
Размер: 19.89 GB
Как cкачать? Как скачать Бок о бок через торрент | UTorrent

% Раздел Тема Автор DL S | L
Фильмы [HD 720p, 1080p] (Хороший звук DUB, MVO) [ 7.17 GB ] Бок о бок / Торговый пункт / Trading Paint | iTunes | 1080p bober100 Скачать
1 | 0
Фильмы [HD 720p, 1080p] (Хороший звук DUB, MVO) [ 3.89 GB ] Бок о бок / Торговый пункт / Trading Paint | iTunes | 720p bober100 Скачать
1 | 0
T Фильмы 2019-2020 [DVDrip, WEB-DLRip, HDrip] (DUB, MVO) [ 1.49 GB ] Бок о бок / Торговый пункт / Trading Paint | HDRezka Studio | BDRip-AVC Enigma2010 Скачать
7 | 0
T Фильмы [HD 720p, 1080p] (Хороший звук DUB, MVO) [ 7.16 GB ] Бок о бок / Торговый пункт / Trading Paint | MVO | 1080p bober100 Скачать
1 | 0
Фильмы 2019-2020 [DVDrip, WEB-DLRip, HDrip] (DUB, MVO) [ 1.46 GB ] Бок о бок / Торговый пункт / Trading Paint | iTunes | BDRip killermax2013 Скачать
1 | 0

28-11-2019 20:33  


Отключить вcю реклaмy на сайте, в т.ч. и в плеере онлайн просмотра!

    Дорогой пользователь! Огромная просьба, поблагодарите релизера, оцените раздачу и оставьте свои комментарий, если Вы скачали Бок о бок через торрент бесплатно!!
    Комментировать посты могут только пользователи прошедшие не сложную регистрацию
    Показать сообщения:    


    Бок о бок через торрент
    Скачать бесплатно Бок о бок
    Бок о бок скачать торрент
    Бок о бок смотреть онлайн
    Cкачать фильм Бок о бок бесплатно
    Бок о бок скачать торрент в хорошем качестве
    Бок о бок смотреть онлайн бесплатно в хорошем качестве
    Вы не можете начинать темы
    Вы не можете отвечать на сообщения
    Вы не можете редактировать свои сообщения
    Вы не можете удалять свои сообщения
    Вы не можете голосовать в опросах
    Вы не можете прикреплять файлы к сообщениям
    Вы можете скачивать файлы
    Бок о бок / Торговый пункт / Trading Paint [2019, Боевик, триллер, драма, спорт, BD Remux 1080p] MVO [iTunes] смотреть онлайн, скачать торрент picoco.icu