Всегда рабочее зеркало просто перед .vidak.icu напиши любое слово или цифру, Пример http://60o.vidak.icu

>

7.4

iTunes

7.4

2 сезон

6.6

iTunes

1

7.4

2 сезон

7.2

iTunes

6.0

MVO

13

6.1

iTunes

8.3

Пиратка

30

ULTIMATE

pack

9.9

Лицензия

ВАЖНО

ИГРА 18+

pack

7.3

RePack

MK11

7.7

RePack

jed

7.8

RePack

fifa19

8.5

RePack

RDR2

RePack

NEED FOR SPEED™ PAYBACK

1 сезон

9 сезон

Бесстыжие 9 сезон

Все сериалы

все сериалы на PB.wtf

RePack

FAR CRY 5

Anonymous, доброй ночи, мы катастрофически не успеваем собрать деньги на оплату серверов, помогите нам пожалуйста 5,10,15р., для нас важна любая помощь . В качестве благодарности мы отключим Вам всю рекламу на сайте (укажите свой ник в строку Ваше имя)!

×
  
Magnet ссылка

Спиритический сеанс / Seance (Саймон Баррет) [2021, Ужасы, BDRip 1080p] DUB [iTunes] pb.wtf

Спиритический сеанс через торрент pb.wtf

Размер: 7.34 GB | Добавлен: 5 мес. 19 д. назад | Торрент скачан:46 раз
Смотреть онлайн Спиритический сеанс | Скачать    Ребята, помогите собрать деньги на оплату серверов!!!

02-08-2021 19:36 Спиритический сеанс Скачать торрент  

Спиритический сеанс | Seance
Год выпуска: 2021
Страна: США
Студия: Dark Castle Entertainment, HanWay Films, Ingenious Media
Жанр: Ужасы
Продолжительность: 01:32:44
Перевод: Дублированный | iTunes
Субтитры: Русские (Forced), английские

Режиссер: Саймон Баррет

rating

В ролях: Инанна Саркис, Сьюки Уотерхаус, Мэдисен Бити, Элла-Рэй Смит, Стефани Сай, Симус Паттерсон, Клифф Самтер

Описание: События фильма разворачиваются в школе-интернате для девочек. Сюда приезжает молодая женщина Камилла после того, как одна из студенток погибла странной и насильственной смертью. Ученицы считают, что в стенах их школы живет мстительный злой дух.

Качество: BDRip 1080p
Формат: MKV

Видео: MPEG-4 AVC, 1920x804, 9437 Kbit/s, 23.976 fps
Аудио #01: 48 kHz, AC3, 5.1, 384 Kbps | iTunes | RUS |
Аудио #02: 48 kHz, DTS, 5.1, 1510 Kbps | Оригинал | ENG |
скриншот  скриншот  скриншот  скриншот  скриншот  

General
Unique ID : 123520525701443153576361397670800996444 (0x5CED301B7DCFBF060CD5E921205F385C)
Complete name : F:VideoSeance.2021.BDRip.1080p.seleZen.mkv
Format : Matroska
Format version : Version 4
File size : 7.34 GiB
Duration : 1 h 32 min
Overall bit rate : 11.3 Mb/s
Movie name : Seance 2021 from seleZen
Encoded date : UTC 2021-08-02 18:24:55
Writing application : mkvmerge v59.0.0 ('Shining Star') 64-bit
Writing library : libebml v1.4.2 + libmatroska v1.6.4

Video
ID : 1
Format : AVC
Format/Info : Advanced Video Codec
Format profile : High@L4.1
Format settings : CABAC / 5 Ref Frames
Format settings, CABAC : Yes
Format settings, Reference : 5 frames
Codec ID : V_MPEG4/ISO/AVC
Duration : 1 h 32 min
Bit rate : 9 437 kb/s
Width : 1 920 pixels
Height : 804 pixels
Display aspect ratio : 2.40:1
Frame rate mode : Constant
Frame rate : 23.976 (24000/1001) FPS
Color space : YUV
Chroma subsampling : 4:2:0
Bit depth : 8 bits
Scan type : Progressive
Bits/(Pixel*Frame) : 0.255
Stream size : 6.11 GiB (83%)
Title : MTeam
Writing library : x264 core 157 r2938 2b00a84 TnP@MTeam Mod
Encoding settings : cabac=1 / ref=5 / deblock=1:-3:-3 / analyse=0x3:0x133 / me=umh / subme=10 / psy=1 / psy_rd=1.05:0.00 / mixed_ref=1 / me_range=32 / chroma_me=1 / trellis=2 / 8x8dct=1 / cqm=0 / deadzone=21,11 / fast_pskip=0 / chroma_qp_offset=-2 / threads=12 / lookahead_threads=2 / sliced_threads=0 / nr=0 / decimate=0 / interlaced=0 / bluray_compat=0 / constrained_intra=0 / bframes=8 / b_pyramid=2 / b_adapt=2 / b_bias=0 / direct=3 / weightb=1 / open_gop=0 / weightp=2 / keyint=250 / keyint_min=24 / scenecut=40 / intra_refresh=0 / rc_lookahead=250 / rc=crf / mbtree=0 / crf=16.8 / qcomp=0.60 / qpmin=0 / qpmax=69 / qpstep=4 / vbv_maxrate=62500 / vbv_bufsize=78125 / crf_max=0.0 / nal_hrd=none / filler=0 / ip_ratio=1.30 / pb_ratio=1.20 / aq=3:0.80
Language : English
Default : Yes
Forced : No
Color range : Limited
Color primaries : BT.709
Matrix coefficients : BT.709

Audio #1
ID : 2
Format : AC-3
Format/Info : Audio Coding 3
Commercial name : Dolby Digital
Codec ID : A_AC3
Duration : 1 h 32 min
Bit rate mode : Constant
Bit rate : 384 kb/s
Channel(s) : 6 channels
Channel layout : L R C LFE Ls Rs
Sampling rate : 48.0 kHz
Frame rate : 31.250 FPS (1536 SPF)
Compression mode : Lossy
Stream size : 255 MiB (3%)
Title : iTunes
Language : Russian
Service kind : Complete Main
Default : Yes
Forced : Yes

Audio #2
ID : 3
Format : DTS
Format/Info : Digital Theater Systems
Codec ID : A_DTS
Duration : 1 h 32 min
Bit rate mode : Constant
Bit rate : 1 509 kb/s
Channel(s) : 6 channels
Channel layout : C L R Ls Rs LFE
Sampling rate : 48.0 kHz
Frame rate : 93.750 FPS (512 SPF)
Bit depth : 16 bits
Compression mode : Lossy
Stream size : 1 001 MiB (13%)
Title : Original
Language : English
Default : No
Forced : No

Text #1
ID : 4
Format : UTF-8
Codec ID : S_TEXT/UTF8
Codec ID/Info : UTF-8 Plain Text
Duration : 58 min 47 s
Bit rate : 2 b/s
Count of elements : 22
Stream size : 999 Bytes (0%)
Title : Forced
Language : Russian
Default : Yes
Forced : Yes

Text #2
ID : 5
Format : UTF-8
Codec ID : S_TEXT/UTF8
Codec ID/Info : UTF-8 Plain Text
Duration : 1 h 28 min
Bit rate : 51 b/s
Count of elements : 1187
Stream size : 33.7 KiB (0%)
Title : SDH
Language : English
Default : No
Forced : No

Menu
00:00:00.000 : Chapter 01
00:11:47.624 : Chapter 02
00:20:53.419 : Chapter 03
00:31:01.651 : Chapter 04
00:40:16.831 : Chapter 05
00:49:53.574 : Chapter 06
01:00:51.731 : Chapter 07
01:10:12.166 : Chapter 08
01:23:13.447 : Chapter 09

pb.wtf



Скачать Спиритический сеанс через торрент https://i115.fastpic.ru/big/2021/0630/7e/03b08eb9d58a4bf3d2c13146b6b8f17e.jpg Скачать, смотреть онлайн Спиритический сеанс бесплантно в хорошем качестве Описание: События фильма разворачиваются в школе-интернате для девочек. Сюда приезжает молодая женщина Камилла после того, как одна из ... 10 10 2
Торрент: Зарегистрирован [2021-08-02 19:36] · скачан: 46 раз
Статус: √ проверено
Размер: 7.34 GB
Как cкачать? Как скачать Спиритический сеанс через торрент | UTorrent

% Раздел Тема Автор DL S | L
Фильмы 2021 [DVDrip, WEB-DLRip, HDrip] (DUB, MVO) [ 1.46 GB ] Спиритический сеанс / Seance [2021 BDRip] bober100 Скачать
1 | 0
Фильмы (Blu-ray, BD-Remux, HDDVD) [ 13.03 GB ] Спиритический сеанс / Seance [2021 BD Remux 1080p] bober100 Скачать
1 | 0
Фильмы [HD 720p, 1080p] (Хороший звук DUB, MVO) [ 2.63 GB ] Спиритический сеанс / Seance [2021 BDRip 720p] bober100 Скачать
1 | 0
Фильмы 2021 [DVDrip, WEB-DLRip, HDrip] (DUB, MVO) [ 707 MB ] Спиритический сеанс / Seance [2021 WEB-DLRip ] coc900 Скачать
1 | 0
Фильмы (WEB-DL 720p, 1080p) [ 3.48 GB ] Спиритический сеанс / Seance [2021 WEB-DL 1080p] bober100 Скачать
1 | 0
Фильмы 2021 [DVDrip, WEB-DLRip, HDrip] (DUB, MVO) [ 1.45 GB ] Спиритический сеанс / Seance [2021 WEB-DLRip] MVO [HDrezka Studio] bober100 Скачать
2 | 0
Фильмы 2011 [ 1.37 GB ] Спиритический сеанс / Seance: The Summoning [2011 DVDRip] JhaWithYou Скачать
1 | 0

28-11-2019 20:33  

Отключить всю рекламу на сайте

    Дорогой пользователь! Огромная просьба, поблагодарите релизера, оцените раздачу и оставьте свои комментарий, если Вы скачали Спиритический сеанс через торрент бесплатно!
    Комментировать посты могут только пользователи прошедшие не сложную регистрацию
    Показать сообщения:    

    Спиритический сеанс через торрент
    Скачать бесплатно Спиритический сеанс
    Спиритический сеанс скачать торрент
    Спиритический сеанс смотреть онлайн
    Cкачать фильм Спиритический сеанс бесплатно
    Спиритический сеанс скачать торрент в хорошем качестве
    Спиритический сеанс смотреть онлайн бесплатно в хорошем качестве


    Вы не можете начинать темы
    Вы не можете отвечать на сообщения
    Вы не можете редактировать свои сообщения
    Вы не можете удалять свои сообщения
    Вы не можете голосовать в опросах
    Вы не можете прикреплять файлы к сообщениям
    Вы можете скачивать файлы