Достать ножи: Стеклянная луковица

MVO

Добыча

Дубляж

Уэнсдэй

1 сезон

Тор

Дубляж

13 клиническая

1 сезон

Жестокая ночь

MVO

Одни из нас

1 сезон

Deluxe

pack

Рекомендуем

30

Пиратка

ВАЖНО

ВАЖНО

Ghostwire

Пиратка

jed

RePack

nioh2

RePack

RDR2

RePack

NEED FOR SPEED™ PAYBACK

RePack

скачать торрент

Кинопоиск HD

Острые козырьки 6 сезон

6 сезон

FAR CRY 6

RePack

скачать торрент

Лицензия

скачать торрент

MVO

1

1 сезон

скачать торрент

1 сезон

скачать торрент

Лицензия

  

Кролик Питер 2 / Peter Rabbit 2: The Runaway (Уилл Глак) [2021, мультфильм, фэнтези, комедия, приключения, семейный, BD Remux 1080p] Дубляж [Лицензия Blu-Ray 4K]

Кролик Питер 2 через торрент pb.wtf

Размер: 17.93 GB | Добавлен: 1 год 5 мес. назад | Торрент скачан:82 раза
Смотреть онлайн | Скачать | Поддержите нас   

03-08-2021 17:02 Кролик Питер 2 Скачать торрент  

Кролик Питер 2 | Peter Rabbit 2: The Runaway
Год выпуска: 2021
Страна: США, Австралия, Индия
Выпущено: 2.0 Entertainment, Animal Logic, Columbia Pictures Corporation, MRC Film, Olive Bridge Entertainment
Жанр: мультфильм, фэнтези, комедия, приключения, семейный
Продолжительность: 01:33:22
Перевод: Дублированный | Лицензия Blu-Ray 4K
Субтитры: Русские (Forced, full), английские

Режиссер: Уилл Глак

rating

В ролях: Донал Глисон, Роуз Бирн, Джеймс Корден, Дэвид Ойелоуо, Тейлор Фергюсон, Энди Гэтергуд, Нивин Ханна, Меган Смарт, Роуэн Чэпман, Далип Сондхи

Описание: Продолжение истории маленького и непоседливого кролика по имени Питер. Беатрис, Томас и крольчата, наконец, находят общий язык и начинают спокойную и размеренную жизнь за городом. Однако Питеру это совсем не по нраву: его мятежная душа требует приключений, и он отправляется на их поиски в большой город, туда, где его проделки уж точно оценят по достоинству. Тем временем, члены его большой дружной семьи, рискуя жизнью, отправляются вслед за Питером, чтобы вернуть его домой, и теперь беглецу предстоит решить, что же для него важнее всего.

Качество: BD Remux 1080p
Формат: MKV

Видео: MPEG-4 AVC, 1920x1080, 24.8 Mbit/s, 23.976 fps
Аудио #01: 48 kHz, AC3, 5.1, 448 Kbps | Дублированный | RUS |
Аудио #02: 48 kHz, DTS-HD MA, 5.1, 2233 Kbps | Оригинал | ENG |
скриншот  скриншот  скриншот  скриншот  скриншот  

General
Unique ID : 156521456133204668407717657941592674633 (0x75C0EF9925E4168CE8767565545A9149)
Complete name : F:VideoPeter.Rabbit.2.The.Runaway.2021.BDREMUX.1080p.seleZen.mkv
Format : Matroska
Format version : Version 4
File size : 17.9 GiB
Duration : 1 h 33 min
Overall bit rate mode : Variable
Overall bit rate : 27.5 Mb/s
Movie name : Peter Rabbit 2 The Runaway 2021 from seleZen
Encoded date : UTC 2021-08-03 13:40:18
Writing application : mkvmerge v59.0.0 ('Shining Star') 64-bit
Writing library : libebml v1.4.2 + libmatroska v1.6.4

Video
ID : 1
Format : AVC
Format/Info : Advanced Video Codec
Format profile : [email protected]
Format settings : CABAC / 2 Ref Frames
Format settings, CABAC : Yes
Format settings, Reference : 2 frames
Format settings, GOP : M=1, N=10
Codec ID : V_MPEG4/ISO/AVC
Duration : 1 h 33 min
Bit rate mode : Variable
Bit rate : 24.8 Mb/s
Width : 1 920 pixels
Height : 1 080 pixels
Display aspect ratio : 16:9
Frame rate mode : Constant
Frame rate : 23.976 (24000/1001) FPS
Color space : YUV
Chroma subsampling : 4:2:0
Bit depth : 8 bits
Scan type : Progressive
Bits/(Pixel*Frame) : 0.499
Stream size : 16.2 GiB (90%)
Language : English
Default : Yes
Forced : No

Audio #1
ID : 2
Format : AC-3
Format/Info : Audio Coding 3
Commercial name : Dolby Digital
Codec ID : A_AC3
Duration : 1 h 33 min
Bit rate mode : Constant
Bit rate : 448 kb/s
Channel(s) : 6 channels
Channel layout : L R C LFE Ls Rs
Sampling rate : 48.0 kHz
Frame rate : 31.250 FPS (1536 SPF)
Compression mode : Lossy
Stream size : 299 MiB (2%)
Title : Дубляж [License Blu-Ray 4K]
Language : Russian
Service kind : Complete Main
Default : Yes
Forced : Yes

Audio #2
ID : 3
Format : DTS XLL
Format/Info : Digital Theater Systems
Commercial name : DTS-HD Master Audio
Codec ID : A_DTS
Duration : 1 h 33 min
Bit rate mode : Variable
Bit rate : 2 233 kb/s
Channel(s) : 6 channels
Channel layout : C L R Ls Rs LFE
Sampling rate : 48.0 kHz
Frame rate : 93.750 FPS (512 SPF)
Bit depth : 16 bits
Compression mode : Lossless
Stream size : 1.46 GiB (8%)
Title : Original
Language : English
Default : No
Forced : No

Text #1
ID : 4
Format : UTF-8
Codec ID : S_TEXT/UTF8
Codec ID/Info : UTF-8 Plain Text
Duration : 1 h 20 min
Bit rate : 3 b/s
Count of elements : 56
Stream size : 2.16 KiB (0%)
Title : Forced
Language : Russian
Default : Yes
Forced : Yes

Text #2
ID : 5
Format : UTF-8
Codec ID : S_TEXT/UTF8
Codec ID/Info : UTF-8 Plain Text
Duration : 1 h 32 min
Bit rate : 117 b/s
Count of elements : 1386
Stream size : 80.0 KiB (0%)
Title : Full
Language : Russian
Default : No
Forced : No

Text #3
ID : 6
Format : UTF-8
Codec ID : S_TEXT/UTF8
Codec ID/Info : UTF-8 Plain Text
Duration : 1 h 26 min
Bit rate : 83 b/s
Count of elements : 1521
Stream size : 52.7 KiB (0%)
Title : Full
Language : English
Default : No
Forced : No

Text #4
ID : 7
Format : UTF-8
Codec ID : S_TEXT/UTF8
Codec ID/Info : UTF-8 Plain Text
Duration : 1 h 32 min
Bit rate : 84 b/s
Count of elements : 1749
Stream size : 57.2 KiB (0%)
Title : SDH
Language : English
Default : No
Forced : No

Menu
00:00:00.000 : Глава 01
00:05:31.665 : Глава 02
00:10:14.113 : Глава 03
00:14:34.540 : Глава 04
00:19:46.685 : Глава 05
00:26:22.331 : Глава 06
00:31:54.871 : Глава 07
00:38:46.950 : Глава 08
00:46:33.541 : Глава 09
00:50:49.797 : Глава 10
00:56:08.156 : Глава 11
01:05:45.066 : Глава 12
01:08:21.973 : Глава 13
01:12:51.701 : Глава 14
01:16:07.313 : Глава 15
01:19:09.328 : Глава 16
01:26:48.286 : Глава 17




Скачать Кролик Питер 2 через торрент https://d.radikal.ru/d34/2108/e9/f0a7c1499eca.jpg Скачать, смотреть онлайн Кролик Питер 2 бесплантно в хорошем качестве Описание: Продолжение истории маленького и непоседливого кролика по имени Питер. Беатрис, Томас и крольчата, наконец, находят общий язык и ... 10 10 4
Торрент: Зарегистрирован [2021-08-03 17:02] · скачан: 82 раз
Статус: √ проверено
Размер: 17.93 GB
Как cкачать? Как скачать Кролик Питер 2 через торрент | UTorrent

% Раздел Тема Автор DL S | L
Фильмы 2021 [DVDrip, WEB-DLRip, HDrip] (DUB, MVO) [ 1.46 GB ] Кролик Питер 2 / Peter Rabbit 2: The Runaway | | DLRip Twi7ter Скачать
4 | 0
Фильмы 2021 [DVDrip, WEB-DLRip, HDrip] (DUB, MVO) [ 1.46 GB ] Кролик Питер 2 / Peter Rabbit 2: The Runaway | Лицензия | BDRip Twi7ter Скачать
10 | 0
Фильмы 2021 [DVDrip, WEB-DLRip, HDrip] (DUB, MVO) [ 2.19 GB ] Кролик Питер 2 / Peter Rabbit 2: The Runaway | Лицензия | HDRip-AVC Lithuania Скачать
1 | 0
Фильмы 2021 [DVDrip, WEB-DLRip, HDrip] (DUB, MVO) [ 1.46 GB ] Кролик Питер 2 / Peter Rabbit 2: The Runaway | Лицензия Blu-Ray 4K | BDRip bober100 Скачать
1 | 0
Фильмы 2021 [DVDrip, WEB-DLRip, HDrip] (DUB, MVO) [ 746 MB ] Кролик Питер 2 / Peter Rabbit 2: The Runaway | Лицензия Blu-Ray 4K | BDRip bober100 Скачать
1 | 0
Фильмы [HD 720p, 1080p] (Хороший звук DUB, MVO) [ 3.53 GB ] Кролик Питер 2 / Peter Rabbit 2: The Runaway | Лицензия Blu-Ray 4K | 720p bober100 Скачать
1 | 0
Ultra HD (UHD: 2K, 4K, 8K) [ 45.84 GB ] Кролик Питер 2 / Peter Rabbit 2: The Runaway | Лицензия Blu-Ray 4K | 2160p bober100 Скачать
1 | 0

28-11-2019 20:33  


Отключить вcю реклaмy на сайте, в т.ч. и в плеере онлайн просмотра!

    Дорогой пользователь! Огромная просьба, поблагодарите релизера, оцените раздачу и оставьте свои комментарий, если Вы скачали Кролик Питер 2 через торрент бесплатно!!
    Комментировать посты могут только пользователи прошедшие не сложную регистрацию
    Показать сообщения:    


    Кролик Питер 2 через торрент
    Скачать бесплатно Кролик Питер 2
    Кролик Питер 2 скачать торрент
    Кролик Питер 2 смотреть онлайн
    Cкачать фильм Кролик Питер 2 бесплатно
    Кролик Питер 2 скачать торрент в хорошем качестве
    Кролик Питер 2 смотреть онлайн бесплатно в хорошем качестве
    Вы не можете начинать темы
    Вы не можете отвечать на сообщения
    Вы не можете редактировать свои сообщения
    Вы не можете удалять свои сообщения
    Вы не можете голосовать в опросах
    Вы не можете прикреплять файлы к сообщениям
    Вы можете скачивать файлы
    Кролик Питер 2 / Peter Rabbit 2: The Runaway [2021, мультфильм, фэнтези, комедия, приключения, семейный, BD Remux 1080p] Дубляж [Лицензия Blu-Ray 4K] смотреть онлайн, скачать торрент picoco.icu