Присоединяйтесь к нам в Telegram!, здесь всегда актуальный адрес сайта, оперативная поддержка и многое другое!!

>

5.9

iTunes

7.4

iTunes

9.4

1 сезон

1

7.4

2 сезон

7.2

iTunes

7.3

1 сезон

13

6.1

iTunes

8.3

GOG

30

ULTIMATE

pack

9.9

Лицензия

ВАЖНО

ИГРА 18+

pack

7.3

RePack

MK11

7.7

RePack

jed

7.8

RePack

fifa19

8.5

RePack

RDR2

RePack

NEED FOR SPEED™ PAYBACK

5 сезон

9 сезон

Бесстыжие 9 сезон

Все сериалы

все сериалы на PB.wtf

RePack

FAR CRY 5

Anonymous, доброй ночи, мы катастрофически не успеваем собрать деньги на оплату серверов, помогите нам пожалуйста 5,10,15р., для нас важна любая помощь . В качестве благодарности мы отключим Вам всю рекламу на сайте (укажите свой ник в строку Ваше имя)!

×
  
Magnet ссылка

Кролик Питер 2 / Peter Rabbit 2: The Runaway (Уилл Глак) [2021, Мультфильм, фэнтези, комедия, приключения, семейный, HDRip-AVC] DUB [Лицензия] от MediaBit pb.wtf

Кролик Питер 2 через торрент pb.wtf

Размер: 2.19 GB | Добавлен: 3 мес. 22 д. назад | Торрент скачан:49 раз
Смотреть онлайн Кролик Питер 2 | Скачать    Ребята, помогите собрать деньги на оплату серверов!!!

04-08-2021 16:34 Кролик Питер 2 Скачать торрент  


Кролик Питер 2 / Peter Rabbit 2: The Runaway
Информация о фильме:
Название: Кролик Питер 2
Оригинальное название: Peter Rabbit 2: The Runaway
Год выхода: 2021
Жанр: Мультфильм, фэнтези, комедия, приключения, семейный
Режиссер: Уилл Глак
В ролях: Донал Глисон, Роуз Бирн, Джеймс Корден, Дэвид Ойелоуо, Тейлор Фергюсон, Энди Гэтергуд, Нивин Ханна, Меган Смарт, Роуэн Чэпман, Далип Сондхи

Описание: Продолжение истории маленького и непоседливого кролика по имени Питер, героя знаменитой детской книги. Беатрис, Томас и крольчата, наконец, находят общий язык и начинают спокойную и размеренную жизнь за городом. Однако Питеру это совсем не по нраву: его мятежная душа требует приключений, и он отправляется на их поиски в большой город, туда, где его проделки уж точно оценят по достоинству. Тем временем, члены его большой дружной семьи, рискуя жизнью, отправляются вслед за Питером, чтобы вернуть его домой, и теперь беглецу предстоит решить, что же для него важнее всего.



Страна: США, Австралия, Индия
Студия: 2.0 Entertainment, Animal Logic, Columbia Pictures Corporation, MRC Film, Olive Bridge Entertainment
Продолжительность: 01:33:22
Перевод: Дублированный - Лицензия (Blu-Ray 4K)



Информация о файле:
Кодек: AVC
Формат: MKV
Качество: HDRip-AVC
Видео: MPEG-4 AVC, 1024x428, 23.976 fps, 2 463 kb/s
Аудио RU: AC3, 6 ch, 48 kHz, 448 kbps
Аудио EN: AC3, 6 ch, 48 kHz, 448 kbps
Субтитры: Русские (Forced, full), английские
Навигация по главам: Да

x264 info: frame I:1471 Avg QP:13.48 size:105775
x264 info: frame P:34605 Avg QP:17.09 size: 27162
x264 info: frame B:98250 Avg QP:21.61 size: 6404
General
Unique ID : 182131666358011618037505441814051108700 (0x8905487314DBB6995FB95A945FD9375C)
Complete name : D:\uTorrent\Рипы wolf1245\Peter.Rabbit.2.The.Runaway.DUB.HDRip-AVC.[wolf1245.MediaBit].mkv
Format : Matroska
Format version : Version 4
File size : 2.19 GiB
Duration : 1 h 33 min
Overall bit rate : 3 361 kb/s
Movie name : Peter.Rabbit.2.The.Runaway.DUB.HDRip-AVC.[wolf1245.MediaBit]
Encoded date : UTC 2021-08-04 16:18:54
Writing application : mkvmerge v60.0.0 ('Are We Copies?') 64-bit
Writing library : libebml v1.4.2 + libmatroska v1.6.4

Video
ID : 1
Format : AVC
Format/Info : Advanced Video Codec
Format profile : High@L4.1
Format settings : CABAC / 14 Ref Frames
Format settings, CABAC : Yes
Format settings, Reference frames : 14 frames
Codec ID : V_MPEG4/ISO/AVC
Duration : 1 h 33 min
Bit rate : 2 463 kb/s
Width : 1 024 pixels
Height : 428 pixels
Display aspect ratio : 2.40:1
Frame rate mode : Constant
Frame rate : 23.976 (24000/1001) FPS
Color space : YUV
Chroma subsampling : 4:2:0
Bit depth : 8 bits
Scan type : Progressive
Bits/(Pixel*Frame) : 0.234
Stream size : 1.61 GiB (73%)
Title : .[wolf1245.MediaBit]
Writing library : x264 core 157 r2958 57baac4
Encoding settings : cabac=1 / ref=14 / deblock=1:-3:-3 / analyse=0x3:0x133 / me=umh / subme=11 / psy=1 / psy_rd=0.98:0.07 / mixed_ref=1 / me_range=48 / chroma_me=1 / trellis=2 / 8x8dct=1 / cqm=0 / deadzone=21,11 / fast_pskip=1 / chroma_qp_offset=-3 / threads=10 / lookahead_threads=2 / sliced_threads=0 / nr=0 / decimate=1 / interlaced=0 / bluray_compat=0 / constrained_intra=0 / bframes=12 / b_pyramid=2 / b_adapt=2 / b_bias=0 / direct=3 / weightb=1 / open_gop=0 / weightp=2 / keyint=240 / keyint_min=24 / scenecut=40 / intra_refresh=0 / rc_lookahead=60 / rc=2pass / mbtree=1 / bitrate=2463 / ratetol=1.0 / qcomp=0.60 / qpmin=0 / qpmax=69 / qpstep=4 / cplxblur=20.0 / qblur=0.5 / vbv_maxrate=50000 / vbv_bufsize=62500 / nal_hrd=none / filler=0 / ip_ratio=1.40 / aq=3:0.80
Language : English
Default : Yes
Forced : No

Audio #1
ID : 2
Format : AC-3
Format/Info : Audio Coding 3
Commercial name : Dolby Digital
Codec ID : A_AC3
Duration : 1 h 33 min
Bit rate mode : Constant
Bit rate : 448 kb/s
Channel(s) : 6 channels
Channel layout : L R C LFE Ls Rs
Sampling rate : 48.0 kHz
Frame rate : 31.250 FPS (1536 SPF)
Compression mode : Lossy
Stream size : 299 MiB (13%)
Title : DUB | [License Blu-Ray 4K]
Language : Russian
Service kind : Complete Main
Default : Yes
Forced : No

Audio #2
ID : 3
Format : AC-3
Format/Info : Audio Coding 3
Commercial name : Dolby Digital
Codec ID : A_AC3
Duration : 1 h 33 min
Bit rate mode : Constant
Bit rate : 448 kb/s
Channel(s) : 6 channels
Channel layout : L R C LFE Ls Rs
Sampling rate : 48.0 kHz
Frame rate : 31.250 FPS (1536 SPF)
Compression mode : Lossy
Stream size : 299 MiB (13%)
Title : Original
Language : English
Service kind : Complete Main
Default : No
Forced : No

Text #1
ID : 4
Format : UTF-8
Codec ID : S_TEXT/UTF8
Codec ID/Info : UTF-8 Plain Text
Duration : 1 h 20 min
Bit rate : 3 b/s
Count of elements : 56
Stream size : 2.16 KiB (0%)
Title : Forced
Language : Russian
Default : Yes
Forced : Yes

Text #2
ID : 5
Format : UTF-8
Codec ID : S_TEXT/UTF8
Codec ID/Info : UTF-8 Plain Text
Duration : 1 h 32 min
Bit rate : 117 b/s
Count of elements : 1386
Stream size : 80.0 KiB (0%)
Title : Full
Language : Russian
Default : No
Forced : No

Text #3
ID : 6
Format : UTF-8
Codec ID : S_TEXT/UTF8
Codec ID/Info : UTF-8 Plain Text
Duration : 1 h 26 min
Bit rate : 83 b/s
Count of elements : 1521
Stream size : 52.7 KiB (0%)
Title : Full
Language : English
Default : No
Forced : No

Text #4
ID : 7
Format : UTF-8
Codec ID : S_TEXT/UTF8
Codec ID/Info : UTF-8 Plain Text
Duration : 1 h 32 min
Bit rate : 84 b/s
Count of elements : 1749
Stream size : 57.2 KiB (0%)
Title : SDH
Language : English
Default : No
Forced : No

Menu
00:00:00.000 : :Глава 01
00:05:31.665 : :Глава 02
00:10:14.113 : :Глава 03
00:14:34.540 : :Глава 04
00:19:46.685 : :Глава 05
00:26:22.331 : :Глава 06
00:31:54.871 : :Глава 07
00:38:46.950 : :Глава 08
00:46:33.541 : :Глава 09
00:50:49.797 : :Глава 10
00:56:08.156 : :Глава 11
01:05:45.066 : :Глава 12
01:08:21.973 : :Глава 13
01:12:51.701 : :Глава 14
01:16:07.313 : :Глава 15
01:19:09.328 : :Глава 16
01:26:48.286 : :Глава 17
Релиз от: &

Автор релиза:
pb.wtf



Скачать Кролик Питер 2 через торрент https://b.radikal.ru/b35/2108/f7/6942120bbfa7.jpg Скачать, смотреть онлайн Кролик Питер 2 бесплантно в хорошем качестве Описание: Продолжение истории маленького и непоседливого кролика по имени Питер, героя знаменитой детской книги. Беатрис, Томас и ... 10 10 1
Торрент: Зарегистрирован [2021-08-04 16:34] · скачан: 49 раз
Статус: √ проверено
Размер: 2.19 GB
Как cкачать? Как скачать Кролик Питер 2 через торрент | UTorrent

28-11-2019 20:33  

Отключить всю рекламу на сайте

    Дорогой пользователь! Огромная просьба, поблагодарите релизера, оцените раздачу и оставьте свои комментарий, если Вы скачали Кролик Питер 2 через торрент бесплатно!
    Комментировать посты могут только пользователи прошедшие не сложную регистрацию
    Показать сообщения:    

    Кролик Питер 2 через торрент
    Скачать бесплатно Кролик Питер 2
    Кролик Питер 2 скачать торрент
    Кролик Питер 2 смотреть онлайн
    Cкачать фильм Кролик Питер 2 бесплатно
    Кролик Питер 2 скачать торрент в хорошем качестве
    Кролик Питер 2 смотреть онлайн бесплатно в хорошем качестве


    Вы не можете начинать темы
    Вы не можете отвечать на сообщения
    Вы не можете редактировать свои сообщения
    Вы не можете удалять свои сообщения
    Вы не можете голосовать в опросах
    Вы не можете прикреплять файлы к сообщениям
    Вы можете скачивать файлы