Присоединяйтесь к нам в Telegram!, здесь всегда актуальный адрес сайта, оперативная поддержка и многое другое!!

>

5.9

iTunes

7.4

iTunes

9.4

1 сезон

1

7.4

2 сезон

7.2

iTunes

7.3

1 сезон

13

6.1

iTunes

8.3

GOG

30

ULTIMATE

pack

9.9

Лицензия

ВАЖНО

ИГРА 18+

pack

7.3

RePack

MK11

7.7

RePack

jed

7.8

RePack

fifa19

8.5

RePack

RDR2

RePack

NEED FOR SPEED™ PAYBACK

5 сезон

9 сезон

Бесстыжие 9 сезон

Все сериалы

все сериалы на PB.wtf

RePack

FAR CRY 5

Anonymous, добрый день, мы катастрофически не успеваем собрать деньги на оплату серверов, помогите нам пожалуйста 5,10,15р., для нас важна любая помощь . В качестве благодарности мы отключим Вам всю рекламу на сайте (укажите свой ник в строку Ваше имя)!

×
  
Magnet ссылка

Здесь и сегодня / Here Today (Билли Кристал) [2021 г., драма, комедия, WEB-DLRip] [MVO] [iTunes] pb.wtf

Здесь и сегодня через торрент pb.wtf

Размер: 721 MB | Добавлен: 3 мес. 28 д. назад | Торрент скачан:2 раза
Смотреть онлайн Здесь и сегодня | Скачать    Ребята, помогите собрать деньги на оплату серверов!!!

04-08-2021 18:23 Здесь и сегодня Скачать торрент  

«Никогда не знаешь, кто изменит твою жизнь» Здесь и сегодня / Here Today
Год выпуска: 2021
Страна: США / Astute FilmsBig, Head ProductionsBig, Indie Pictures
Жанр: драма, комедия
Продолжительность: 01:56:48
Перевод: Профессиональный (многоголосый) iTunes

Субтитры: русские форсированные – вшитые

Режиссер: Билли Кристал

rating

В ролях: Билли Кристал, Тиффани Хэддиш, Пенн Бэджли, Лаура Бенанти, Луиса Краузе, Чад Дженнингс, Дирдре Фрил, Алекс Брайтман, Мэттью Бруссар, Макс Гордон Мур

Описание: Постепенно впадающий в маразм ветеран комедийной сцены Чарли Бёрнс однажды встречает уличную певицу Эмму Пейдж, которая, несмотря на свою взбалмошность, помогаем ему в борьбе с недугом.

Качество: WEB-DLRip
Формат: AVI
Видео кодек: DivX
Аудио кодек: MP3
Видео: 640x344 (1.86:1), 23.976 fps, DivX Codec 4.x ~725 kbps avg, 0.14 bit/pixel
Аудио: 48 kHz, MPEG Layer 3, 2 ch, ~128.00 kbps avg








Общее
Полное имя : G:\ФИЛЬМЫ\Здесь и сегодня.2021.D.WEB-DLRip.avi
Формат : AVI
Формат/Информация : Audio Video Interleave
Размер файла : 721 Мбайт
Продолжительность : 1 ч. 56 м.
Общий поток : 863 Кбит/сек
Программа кодирования : VirtualDubMod 1.5.10.3 | www.virtualdub-fr.org || (build 2550/release)
Библиотека кодирования : VirtualDubMod build 2550/release

Видео
Идентификатор : 0
Формат : MPEG-4 Visual
Профиль формата : Advanced Simple@L5
Настройки формата : BVOP2
Параметр BVOP формата : 2
Параметр QPel формата : Нет
Параметр GMC формата : Без точки перехода
Параметр матрицы формата : Default (MPEG)
Идентификатор кодека : DIVX
Идентификатор кодека/Информация : Project Mayo
Идентификатор кодека/Подсказка : DivX 4
Продолжительность : 1 ч. 56 м.
Битрейт : 725 Кбит/сек
Ширина : 640 пикселей
Высота : 344 пикселя
Соотношение сторон : 1,85:1
Частота кадров : 23,976 (24000/1001) кадра/сек
Цветовое пространство : YUV
Субдискретизация насыщенности : 4:2:0
Битовая глубина : 8 бит
Тип развёртки : Прогрессивная
Метод сжатия : С потерями
Бит/(Пиксели*Кадры) : 0.137
Размер потока : 606 Мбайт (84%)
Библиотека кодирования : XviD 1.2.1 (UTC 2008-12-04)

Аудио
Идентификатор : 1
Формат : MPEG Audio
Версия формата : Version 1
Профиль формата : Layer 3
Настройки формата : Joint stereo / MS Stereo
Идентификатор кодека : 55
Идентификатор кодека/Подсказка : MP3
Продолжительность : 1 ч. 56 м.
Вид битрейта : Постоянный
Битрейт : 128 Кбит/сек
Каналы : 2 канала
Частота : 48,0 КГц
Частота кадров : 41,667 кадра/сек (1152 SPF)
Метод сжатия : С потерями
Размер потока : 107 Мбайт (15%)
Выравнивание : Соединение по промежуткам
Продолжительность промежутка : 42 мс. (1,00 видеокадр)
Время предзагрузки промежутка : 504 мс.
Библиотека кодирования : LAME3.99r
Настройки программы : -m j -V 4 -q 2 -lowpass 17 -b 128

Report created by : MediaInfoLib - v21.03
Report created on : UTC 2021-08-04 17:48:02

pb.wtf



Скачать Здесь и сегодня через торрент https://pic1.kartinco.top/new/img/2021-08/04/2atpowyr1ohwelchqw0us09hu.jpg Скачать, смотреть онлайн Здесь и сегодня бесплантно в хорошем качестве Описание: Постепенно впадающий в маразм ветеран комедийной сцены Чарли Бёрнс однажды встречает уличную певицу Эмму Пейдж, которая, несмотря ... 1 10 1
Торрент: Зарегистрирован [2021-08-04 18:23] · скачан: 2 раз
Статус: √ проверено
Размер: 721 MB
Как cкачать? Как скачать Здесь и сегодня через торрент | UTorrent

% Раздел Тема Автор DL S | L
Фильмы [HD 720p, 1080p] (Хороший звук DUB, MVO) [ 4.58 GB ] Здесь и сегодня / Here Today [2021 BDRip 720p] MVO bober100 Скачать
1 | 0
Фильмы [HD 720p, 1080p] (Хороший звук DUB, MVO) [ 11.04 GB ] Здесь и сегодня / Here Today [2021 BDRip 1080p] MVO bober100 Скачать
1 | 0
Фильмы 2021 [DVDrip, WEB-DLRip, HDrip] (DUB, MVO) [ 2.18 GB ] Здесь и сегодня / Here Today [2021 BDRip] MVO bober100 Скачать
1 | 0
Фильмы (Blu-ray, BD-Remux, HDDVD) [ 22.35 GB ] Здесь и сегодня / Here Today [2021 BD Remux 1080p] MVO bober100 Скачать
1 | 0
Фильмы 2021 [DVDrip, WEB-DLRip, HDrip] (DUB, MVO) [ 2.33 GB ] Здесь и сегодня / Here Today [2021 HDRip-AVC] MVO от MediaBit Lithuania Скачать
1 | 0
Фильмы 2021 [DVDrip, WEB-DLRip, HDrip] (DUB, MVO) [ 1.46 GB ] Здесь и сегодня / Here Today [2021 BDRip] MVO bober100 Скачать
1 | 0

28-11-2019 20:33  

Отключить всю рекламу на сайте

    Дорогой пользователь! Огромная просьба, поблагодарите релизера, оцените раздачу и оставьте свои комментарий, если Вы скачали Здесь и сегодня через торрент бесплатно!
    Комментировать посты могут только пользователи прошедшие не сложную регистрацию
    Показать сообщения:    

    Здесь и сегодня через торрент
    Скачать бесплатно Здесь и сегодня
    Здесь и сегодня скачать торрент
    Здесь и сегодня смотреть онлайн
    Cкачать фильм Здесь и сегодня бесплатно
    Здесь и сегодня скачать торрент в хорошем качестве
    Здесь и сегодня смотреть онлайн бесплатно в хорошем качестве


    Вы не можете начинать темы
    Вы не можете отвечать на сообщения
    Вы не можете редактировать свои сообщения
    Вы не можете удалять свои сообщения
    Вы не можете голосовать в опросах
    Вы не можете прикреплять файлы к сообщениям
    Вы можете скачивать файлы