Достать ножи: Стеклянная луковица

MVO

Добыча

Дубляж

Уэнсдэй

1 сезон

Тор

Дубляж

13 клиническая

1 сезон

Жестокая ночь

MVO

Одни из нас

1 сезон

Deluxe

pack

Рекомендуем

30

Пиратка

ВАЖНО

ВАЖНО

Ghostwire

Пиратка

jed

RePack

nioh2

RePack

RDR2

RePack

NEED FOR SPEED™ PAYBACK

RePack

скачать торрент

Кинопоиск HD

Острые козырьки 6 сезон

6 сезон

FAR CRY 6

RePack

скачать торрент

Лицензия

скачать торрент

MVO

1

1 сезон

скачать торрент

1 сезон

скачать торрент

Лицензия

  

Оборотни внутри / Werewolves Within (Джош Рубен) [2021, Ужасы, комедия, детектив, HDRip-AVC] Дубляж [iTunes]

Оборотни внутри через торрент pb.wtf

Раздают: 2 [ 0 KB/s ]
Размер: 1.45 GB | Добавлен: 1 год 4 мес. назад | Торрент скачан:71 раз
Смотреть онлайн | Скачать | Поддержите нас   

05-08-2021 06:02 Оборотни внутри Скачать торрент  

Оборотни внутри | Werewolves Within
Год выпуска: 2021
Страна: США
Студия: Ubi Soft Entertainment, Ubisoft Motion Pictures, Vanishing Angle
Жанр: Ужасы, комедия, детектив
Продолжительность: 01:36:38
Перевод: Дублированный | iTunes
Субтитры: Русские (Forced, full), английские

Режиссер: Джош Рубен

rating

В ролях: Сэм Ричардсон, Милана Вайнтруб, Джордж Бейзил, Сара Бёрнс, Майкл Чернус, Кэти Куртин, Уэйн Дювалл, Харви Гильен, Ребекка Хендерсон, Шайен Джексон

Описание: Мягкий парень Финн Уилер назначен новым рейнджером в захолустный северный городок Биверфилд. Он знакомится с жителями, которые оказываются один чуднее другого, и только девушка-почтальон Сесили кажется ему адекватным человеком, и даже больше — родной душой. Когда Биверфилд накрывает сильный снегопад и отключаются все коммуникации, выясняется, что кто-то не только убил собачку миссис Андертон, но и повредил генераторы. Местные и приехавшие по вопросу проведения в эту глушь газопровода собираются в гостевом доме и вскоре приходят к выводу, что среди них затаился хитрый оборотень.

Качество: HDRip-AVC
Формат: MKV

Видео: 1024x428 at 23.976 fps, [email protected], ~1767 kbps, 0.168 bpp
Аудио: 48 kHz, AC3 Dolby Digital, 3/2 (L, C, R, l, r) + LFE ch, ~384 Kbps
скриншот  скриншот  скриншот  скриншот  скриншот  

x264 [info]: frame I:1068 Avg QP:12.12 size: 69794
x264 [info]: frame P:28303 Avg QP:15.16 size: 21027
x264 [info]: frame B:109652 Avg QP:17.47 size: 5562
x264 [info]: consecutive B-frames: 1.6% 1.9% 5.1% 20.5% 16.7% 39.5% 6.8% 3.6% 1.4% 1.1% 0.3% 0.5% 0.3% 0.2% 0.6%

General
Unique ID : 315132058957732147334790648670194572164 (0xED143A14B269B5A8D2F505DC276D1B84)
Complete name : K:Оборотни внутри.(2021).HDRip-AVC.[-=DoMiNo=-].mkv
Format : Matroska
Format version : Version 4
File size : 1.45 GiB
Duration : 1 h 36 min
Overall bit rate : 2 151 kb/s
Movie name : Оборотни внутри.(2021).HDRip-AVC.[-=DoMiNo=-]
Encoded date : UTC 2021-09-06 13:03:44
Writing application : mkvmerge v61.0.0 ('So') 64-bit
Writing library : libebml v1.4.2 + libmatroska v1.6.4
Cover : Yes
Attachments : Cover.jpg / Cover 2.jpg

Video
ID : 1
Format : AVC
Format/Info : Advanced Video Codec
Format profile : [email protected]
Format settings : CABAC / 12 Ref Frames
Format settings, CABAC : Yes
Format settings, Reference : 12 frames
Codec ID : V_MPEG4/ISO/AVC
Duration : 1 h 36 min
Bit rate : 1 767 kb/s
Width : 1 024 pixels
Height : 428 pixels
Display aspect ratio : 2.40:1
Frame rate mode : Constant
Frame rate : 23.976 (24000/1001) FPS
Color space : YUV
Chroma subsampling : 4:2:0
Bit depth : 8 bits
Scan type : Progressive
Bits/(Pixel*Frame) : 0.168
Stream size : 1.19 GiB (82%)
Title : -=DoMiNo=-
Writing library : x264 core 164 r3065+55M 280faca t_mod_New [(8 & 10)[email protected] X86_64]
Encoding settings : cabac=1 / ref=12 / deblock=1:-3:-2 / analyse=0x3:0x133 / me=umh / subme=10 / psy=1 / fade_compensate=0.00 / psy_rd=1.00:0.05 / mixed_ref=1 / me_range=32 / chroma_me=1 / trellis=2 / 8x8dct=1 / cqm=0 / deadzone=21,11 / fast_pskip=0 / chroma_qp_offset=-3 / threads=24 / lookahead_threads=3 / sliced_threads=0 / nr=0 / decimate=0 / interlaced=0 / bluray_compat=0 / constrained_intra=0 / fgo=0 / bframes=14 / b_pyramid=2 / b_adapt=2 / b_bias=0 / direct=3 / weightb=1 / open_gop=0 / weightp=2 / keyint=240 / keyint_min=23 / scenecut=40 / intra_refresh=0 / rc_lookahead=60 / rc=2pass / mbtree=0 / bitrate=1767 / ratetol=1.0 / qcomp=0.65 / qpmin=0:0:0 / qpmax=69:69:69 / qpstep=4 / cplxblur=20.0 / qblur=0.5 / vbv_maxrate=50000 / vbv_bufsize=62500 / nal_hrd=none / filler=0 / ip_ratio=1.40 / pb_ratio=1.30 / aq=3:0.80 / aq-sensitivity=10.00 / aq-factor=1.00:1.00:1.00 / aq2=0 / aq3=0
Language : English
Default : Yes
Forced : No

Audio
ID : 2
Format : AC-3
Format/Info : Audio Coding 3
Commercial name : Dolby Digital
Codec ID : A_AC3
Duration : 1 h 36 min
Bit rate mode : Constant
Bit rate : 384 kb/s
Channel(s) : 6 channels
Channel layout : L R C LFE Ls Rs
Sampling rate : 48.0 kHz
Frame rate : 31.250 FPS (1536 SPF)
Compression mode : Lossy
Stream size : 265 MiB (18%)
Title : Дубляж
Language : Russian
Service kind : Complete Main
Default : Yes
Forced : No

Text #1
ID : 3
Format : UTF-8
Codec ID : S_TEXT/UTF8
Codec ID/Info : UTF-8 Plain Text
Duration : 4 min 21 s
Bit rate : 9 b/s
Count of elements : 7
Stream size : 312 Bytes (0%)
Title : Forced
Language : Russian
Default : Yes
Forced : No

Text #2
ID : 4
Format : UTF-8
Codec ID : S_TEXT/UTF8
Codec ID/Info : UTF-8 Plain Text
Duration : 1 h 33 min
Bit rate : 107 b/s
Count of elements : 1438
Stream size : 73.8 KiB (0%)
Title : Full
Language : Russian
Default : No
Forced : No

Text #3
ID : 5
Format : UTF-8
Codec ID : S_TEXT/UTF8
Codec ID/Info : UTF-8 Plain Text
Duration : 40 min 59 s
Bit rate : 84 b/s
Count of elements : 703
Stream size : 25.4 KiB (0%)
Title : Full
Language : English
Default : No
Forced : No

Text #4
ID : 6
Format : UTF-8
Codec ID : S_TEXT/UTF8
Codec ID/Info : UTF-8 Plain Text
Duration : 41 min 48 s
Bit rate : 93 b/s
Count of elements : 735
Stream size : 28.6 KiB (0%)
Title : SDH
Language : English
Default : No
Forced : No

Menu
00:00:00.000 : Chapter 01
00:09:32.489 : Chapter 02
00:17:22.833 : Chapter 03
00:26:47.397 : Chapter 04
00:35:09.566 : Chapter 05
00:42:14.824 : Chapter 06
00:51:49.606 : Chapter 07
01:02:56.439 : Chapter 08
01:12:04.195 : Chapter 09
01:19:09.036 : Chapter 10
01:23:39.932 : Chapter 11
01:30:17.329 : Chapter 12




Скачать Оборотни внутри через торрент https://d.radikal.ru/d39/2109/88/a973856b4c3a.jpg Скачать, смотреть онлайн Оборотни внутри бесплантно в хорошем качестве Описание: Мягкий парень Финн Уилер назначен новым рейнджером в захолустный северный городок Биверфилд. Он знакомится с жителями, которые ... 10 10 5
Торрент: Зарегистрирован [2021-09-07 00:17] · скачан: 71 раз
Статус: √ проверено
Размер: 1.45 GB
Как cкачать? Как скачать Оборотни внутри через торрент | UTorrent

% Раздел Тема Автор DL S | L
Фильмы [HD 720p, 1080p] (Хороший звук DUB, MVO) [ 8.12 GB ] Оборотни внутри / Werewolves Within | iTunes | 1080p killermax2013 Скачать
1 | 0
Фильмы [HD 720p, 1080p] (Хороший звук DUB, MVO) [ 4.46 GB ] Оборотни внутри / Werewolves Within | iTunes | 720p bober100 Скачать
1 | 0
Фильмы 2021 [DVDrip, WEB-DLRip, HDrip] (DUB, MVO) [ 2.05 GB ] Оборотни внутри / Werewolves Within | iTunes | HDRip-AVC Lithuania Скачать
1 | 0
Фильмы 2021 [DVDrip, WEB-DLRip, HDrip] (DUB, MVO) [ 1.36 GB ] Оборотни внутри / Werewolves Within | iTunes | BDRip bober100 Скачать
1 | 0
Фильмы 2021 [DVDrip, WEB-DLRip, HDrip] (DUB, MVO) [ 745 MB ] Оборотни внутри / Werewolves Within | iTunes | HDRip bober100 Скачать
1 | 0
Фильмы (Blu-ray, BD-Remux, HDDVD) [ 23.73 GB ] Оборотни внутри / Werewolves Within | iTunes | BD Remux 1080p bober100 Скачать
1 | 0

28-11-2019 20:33  


Отключить вcю реклaмy на сайте, в т.ч. и в плеере онлайн просмотра!

    Дорогой пользователь! Огромная просьба, поблагодарите релизера, оцените раздачу и оставьте свои комментарий, если Вы скачали Оборотни внутри через торрент бесплатно!!
    Комментировать посты могут только пользователи прошедшие не сложную регистрацию
    Показать сообщения:    


    Оборотни внутри через торрент
    Скачать бесплатно Оборотни внутри
    Оборотни внутри скачать торрент
    Оборотни внутри смотреть онлайн
    Cкачать фильм Оборотни внутри бесплатно
    Оборотни внутри скачать торрент в хорошем качестве
    Оборотни внутри смотреть онлайн бесплатно в хорошем качестве
    Вы не можете начинать темы
    Вы не можете отвечать на сообщения
    Вы не можете редактировать свои сообщения
    Вы не можете удалять свои сообщения
    Вы не можете голосовать в опросах
    Вы не можете прикреплять файлы к сообщениям
    Вы можете скачивать файлы
    Оборотни внутри / Werewolves Within [2021, Ужасы, комедия, детектив, HDRip-AVC] Дубляж [iTunes] смотреть онлайн, скачать торрент picoco.icu