Присоединяйтесь к нам в Telegram!, здесь всегда актуальный адрес сайта, оперативная поддержка и многое другое!!

>

5.9

iTunes

7.4

iTunes

9.4

1 сезон

1

7.4

2 сезон

7.2

iTunes

7.3

1 сезон

13

6.1

iTunes

8.3

GOG

30

ULTIMATE

pack

9.9

Лицензия

ВАЖНО

ИГРА 18+

pack

7.3

RePack

MK11

7.7

RePack

jed

7.8

RePack

fifa19

8.5

RePack

RDR2

RePack

NEED FOR SPEED™ PAYBACK

5 сезон

9 сезон

Бесстыжие 9 сезон

Все сериалы

все сериалы на PB.wtf

RePack

FAR CRY 5

Anonymous, добрый вечер, мы катастрофически не успеваем собрать деньги на оплату серверов, помогите нам пожалуйста 5,10,15р., для нас важна любая помощь . В качестве благодарности мы отключим Вам всю рекламу на сайте (укажите свой ник в строку Ваше имя)!

×
  
Magnet ссылка

Отзвуки / Aftermath (Питер Уинтер) [2021, Ужасы, триллер, драма, детектив, WEB-DLRip-AVC] DUB [IYUNO SDI Group / Netflix] pb.wtf

Отзвуки через торрент pb.wtf

Размер: 1.45 GB | Добавлен: 3 мес. 25 д. назад | Торрент скачан:101 раз
Смотреть онлайн Отзвуки | Скачать    Ребята, помогите собрать деньги на оплату серверов!!!

05-08-2021 07:35 Отзвуки Скачать торрент  

Отзвуки | Aftermath
Год выпуска: 2021
Страна: США
Студия: Productivity Media, RiverRun Entertainment, Winther Brothers Entertainment
Жанр: Ужасы, триллер, драма, детектив
Продолжительность: 01:54:35
Перевод: Дублированный | IYUNO SDI Group по заказу Netflix
Субтитры: Русские (Full), украинские, английские

Режиссер: Питер Уинтер

rating

В ролях: Эшли Грин, Шон Эшмор, Шариф Аткинс, Бритт Барон, Диана Хоппер, Джэми Калер, Трэвис Коулз, Сьюзэн Уолтерс, Росс МакКолл, Джейсон Лилз

Описание: Переехав в дом своей мечты, молодая пара очень скоро сталкивается со странными и пугающими явлениями в нём. Постепенно они понимают, что на чердаке живёт нечто жуткое, а история дома полна страшных тайн.

Качество: WEB-DLRip-AVC
Формат: MKV

Видео: 1024x426 at 23.976 fps, x264@L4.1, ~1366 kbps
Аудио: AC3, 48 kHz, 6 ch, ~448.00 kbps avg | русский | Netflix
скриншот  скриншот  скриншот  скриншот  скриншот  

x264 [info]: frame I:1407 Avg QP:12.60 size: 65397
x264 [info]: frame P:32203 Avg QP:15.87 size: 17801
x264 [info]: frame B:131232 Avg QP:18.05 size: 3885

General
Format : Matroska
Format version : Version 4
File size : 1.45 GiB
Duration : 1 h 54 min
Overall bit rate : 1 817 kb/s
Movie name : Отзвуки.(2021).WEB-DLRip-AVC.[-=DoMiNo=-]
Encoded date : UTC 2021-08-05 07:26:24
Writing application : mkvmerge v60.0.0 ('Are We Copies?') 64-bit
Writing library : libebml v1.4.2 + libmatroska v1.6.4
Cover : Yes
Attachments : Cover.jpg / Cover 2.jpg

Video
ID : 1
Format : AVC
Format/Info : Advanced Video Codec
Format profile : High@L4.1
Format settings : CABAC / 11 Ref Frames
Format settings, CABAC : Yes
Format settings, Reference : 11 frames
Codec ID : V_MPEG4/ISO/AVC
Duration : 1 h 54 min
Bit rate : 1 366 kb/s
Width : 1 024 pixels
Height : 426 pixels
Display aspect ratio : 2.40:1
Frame rate mode : Constant
Frame rate : 23.976 (24000/1001) FPS
Color space : YUV
Chroma subsampling : 4:2:0
Bit depth : 8 bits
Scan type : Progressive
Bits/(Pixel*Frame) : 0.131
Stream size : 1.09 GiB (75%)
Title : -=DoMiNo=-
Writing library : x264 core 164 r3065+55M 280faca t_mod_New [(8 & 10)-bit@all X86_64]
Encoding settings : cabac=1 / ref=11 / deblock=1:-3:-2 / analyse=0x3:0x133 / me=umh / subme=11 / psy=1 / fade_compensate=0.00 / psy_rd=1.00:0.08 / mixed_ref=1 / me_range=32 / chroma_me=1 / trellis=2 / 8x8dct=1 / cqm=0 / deadzone=21,11 / fast_pskip=0 / chroma_qp_offset=-3 / threads=24 / lookahead_threads=3 / sliced_threads=0 / nr=0 / decimate=0 / interlaced=0 / bluray_compat=0 / constrained_intra=0 / fgo=0 / bframes=10 / b_pyramid=2 / b_adapt=2 / b_bias=0 / direct=3 / weightb=1 / open_gop=0 / weightp=2 / keyint=240 / keyint_min=23 / scenecut=40 / intra_refresh=0 / rc_lookahead=60 / rc=2pass / mbtree=0 / bitrate=1366 / ratetol=1.0 / qcomp=0.65 / qpmin=0:0:0 / qpmax=69:69:69 / qpstep=4 / cplxblur=20.0 / qblur=0.5 / vbv_maxrate=50000 / vbv_bufsize=62500 / nal_hrd=none / filler=0 / ip_ratio=1.40 / pb_ratio=1.30 / aq=3:1.00 / aq-sensitivity=10.00 / aq-factor=1.00:1.00:1.00 / aq2=0 / aq3=0
Language : English
Default : Yes
Forced : No

Audio
ID : 2
Format : AC-3
Format/Info : Audio Coding 3
Commercial name : Dolby Digital
Codec ID : A_AC3
Duration : 1 h 54 min
Bit rate mode : Constant
Bit rate : 448 kb/s
Channel(s) : 6 channels
Channel layout : L R C LFE Ls Rs
Sampling rate : 48.0 kHz
Frame rate : 31.250 FPS (1536 SPF)
Compression mode : Lossy
Stream size : 367 MiB (25%)
Title : DUB
Language : Russian
Service kind : Complete Main
Default : Yes
Forced : No

Text #1
ID : 3
Format : UTF-8
Codec ID : S_TEXT/UTF8
Codec ID/Info : UTF-8 Plain Text
Duration : 1 h 53 min
Bit rate : 78 b/s
Count of elements : 1266
Stream size : 65.1 KiB (0%)
Title : Full
Language : Russian
Default : No
Forced : No

Text #2
ID : 4
Format : UTF-8
Codec ID : S_TEXT/UTF8
Codec ID/Info : UTF-8 Plain Text
Duration : 1 h 53 min
Bit rate : 71 b/s
Count of elements : 1277
Stream size : 59.5 KiB (0%)
Language : Ukrainian
Default : No
Forced : No

Text #3
ID : 5
Format : UTF-8
Codec ID : S_TEXT/UTF8
Codec ID/Info : UTF-8 Plain Text
Duration : 1 h 52 min
Bit rate : 64 b/s
Count of elements : 1498
Stream size : 53.0 KiB (0%)
Title : SDH
Language : English
Default : No
Forced : No

pb.wtf



Скачать Отзвуки через торрент https://i115.fastpic.org/big/2021/0805/54/5248a368b158e4b25a6ab9676bfe1654.jpg Скачать, смотреть онлайн Отзвуки бесплантно в хорошем качестве Описание: Переехав в дом своей мечты, молодая пара очень скоро сталкивается со странными и пугающими явлениями в нём. Постепенно они ... 10 10 4
Торрент: Зарегистрирован [2021-08-05 07:35] · скачан: 101 раз
Статус: √ проверено
Размер: 1.45 GB
Как cкачать? Как скачать Отзвуки через торрент | UTorrent

% Раздел Тема Автор DL S | L
Фильмы (WEB-DL 720p, 1080p) [ 3.47 GB ] Отзвуки / Aftermath [2021 WEB-DL 1080p] DUB [IYUNO SDI Group / Netflix] bober100 Скачать
2 | 0
Фильмы 2021 [DVDrip, WEB-DLRip, HDrip] (DUB, MVO) [ 2.18 GB ] Отзвуки / Aftermath [2021 WEB-DLRip] - [ / Netflix] Twi7ter Скачать
12 | 0
Фильмы 2021 [DVDrip, WEB-DLRip, HDrip] (DUB, MVO) [ 1.46 GB ] Отзвуки / Aftermath [2021 WEB-DLRip] - [ / Netflix] Twi7ter Скачать
18 | 0
Фильмы 2021 [DVDrip, WEB-DLRip, HDrip] (DUB, MVO) [ 2.18 GB ] Отзвуки / Aftermath [2021 WEB-DLRip] DUB [IYUNO SDI Group / Netflix] bober100 Скачать
1 | 0
Фильмы 2021 [DVDrip, WEB-DLRip, HDrip] (DUB, MVO) [ 1.46 GB ] Отзвуки / Aftermath [2021 WEB-DLRip] DUB [IYUNO SDI Group / Netflix] bober100 Скачать
1 | 0

28-11-2019 20:33  

Отключить всю рекламу на сайте

    Дорогой пользователь! Огромная просьба, поблагодарите релизера, оцените раздачу и оставьте свои комментарий, если Вы скачали Отзвуки через торрент бесплатно!
    Комментировать посты могут только пользователи прошедшие не сложную регистрацию
    Показать сообщения:    

    Отзвуки через торрент
    Скачать бесплатно Отзвуки
    Отзвуки скачать торрент
    Отзвуки смотреть онлайн
    Cкачать фильм Отзвуки бесплатно
    Отзвуки скачать торрент в хорошем качестве
    Отзвуки смотреть онлайн бесплатно в хорошем качестве


    Вы не можете начинать темы
    Вы не можете отвечать на сообщения
    Вы не можете редактировать свои сообщения
    Вы не можете удалять свои сообщения
    Вы не можете голосовать в опросах
    Вы не можете прикреплять файлы к сообщениям
    Вы можете скачивать файлы