Всегда рабочее зеркало без VPN и Proxy просто перед .vidak.icu напиши любое слово или цифру, Пример http://c0r2.vidak.icu

Лицензия

MVO

1 сезон

1

1 сезон

iTunes

1 сезон

13

1 сезон

Deluxe

pack

Рекомендуем

Repack

30

ВАЖНО

RePack

MK11

RePack

jed

RePack

fifa19

RePack

RDR2

RePack

NEED FOR SPEED™ PAYBACK

Кинопоиск HD

6 сезон

 Острые козырьки 6 сезон

Все сериалы

все сериалы на PB.wtf

RePack

FAR CRY 5
  
Magnet ссылка

Whitesnake - The Blues Album - 2021/ FLAC/ image +.cue/ lossless/ Hard Rock pb.wtf

Whitesnake - The Blues Album - 2021 через торрент pb.wtf

Размер: 620 MB | Добавлен: 1 год назад | Торрент скачан:9 раз
Смотреть онлайн Whitesnake - The Blues Album - 2021 | Скачать    Ребята, помогите собрать деньги на оплату серверов!!!

05-08-2021 09:09 Whitesnake - The Blues Album - 2021 Скачать торрент  


Whitesnake - The Blues Album


Год издания: 2021
Страна: UK
Жанр: Hard Rock
Продолжительность: 01:18:23
Лейбл издания: RHINO Entertainment Company, Warner Music Group
Страна-выпуска диска: Japan
Номер по каталогу: WPCR-18404
Формат: FLAC
Битрейт аудио: Lossless
Тип рипа: image +.cue
Наличие сканов в содержимом раздачи: да


01. Steal Your Heart Away (5:20)
02. Good to Be Bad (5:15)
03. Give Me All Your Love (3:14)
04. Take Me Back Again (6:24)
05. Slow an’ Easy (6:10)
06. Too Many Tears (5:46)
07. Lay Down Your Love (6:11)
08. The River Song (6:38)
09. Whipping Boy Blues (5:40)
10. If You Want Me (4:08)
11. A Fool in Love (5:49)
12. Woman Trouble Blues (5:43)
13. Looking for Love (6:23)
14. Crying in the Rain (5:49)

Код:

Exact Audio Copy V1.5 from 20. February 2020

EAC extraction logfile from 11. March 2021, 22:10

Whitesnake / The Blues Album (WPCR-18404)

Used drive  : TSSTcorpDVDWBD SH-B123L   Adapter: 1  ID: 1

Read mode               : Secure
Utilize accurate stream : Yes
Defeat audio cache      : Yes
Make use of C2 pointers : No

Read offset correction                      : 6
Overread into Lead-In and Lead-Out          : No
Fill up missing offset samples with silence : Yes
Delete leading and trailing silent blocks   : No
Null samples used in CRC calculations       : Yes
Used interface                              : Native Win32 interface for Win NT & 2000

Used output format              : User Defined Encoder
Selected bitrate                : 896 kBit/s
Quality                         : High
Add ID3 tag                     : No
Command line compressor         : C:\Program Files (x86)\Exact Audio Copy\FLAC\FLAC.EXE
Additional command line options : -6 -V -T "ARTIST=%artist%" -T "TITLE=%title%" -T "ALBUM=%albumtitle%" -T "DATE=%year%" -T "TRACKNUMBER=%tracknr%" -T "GENRE=%genre%" -T "COMMENT=%comment%" -T "BAND=%albuminterpret%" -T "ALBUMARTIST=%albuminterpret%" -T "COMPOSER=%composer%" %haslyrics%--tag-from-file=LYRICS="%lyricsfile%"%haslyrics% -T "DISCNUMBER=%cdnumber%" -T "TOTALDISCS=%totalcds%" -T "TOTALTRACKS=%numtracks%" %hascover%--picture="%coverfile%"%hascover% %source% -o %dest%

TOC of the extracted CD

     Track |   Start  |  Length  | Start sector | End sector
    ---------------------------------------------------------
        1  |  0:00.00 |  5:19.44 |         0    |    23968
        2  |  5:19.44 |  5:14.26 |     23969    |    47544
        3  | 10:33.70 |  3:13.19 |     47545    |    62038
        4  | 13:47.14 |  6:23.63 |     62039    |    90826
        5  | 20:11.02 |  6:09.05 |     90827    |   118506
        6  | 26:20.07 |  5:45.34 |    118507    |   144415
        7  | 32:05.41 |  6:10.71 |    144416    |   172236
        8  | 38:16.37 |  6:37.18 |    172237    |   202029
        9  | 44:53.55 |  5:39.21 |    202030    |   227475
       10  | 50:33.01 |  4:07.48 |    227476    |   246048
       11  | 54:40.49 |  5:48.27 |    246049    |   272175
       12  | 60:29.01 |  5:42.43 |    272176    |   297868
       13  | 66:11.44 |  6:22.27 |    297869    |   326545
       14  | 72:33.71 |  5:48.62 |    326546    |   352707

Range status and errors

Selected range

     Filename E:\MUSIC\Whitesnake - The Blues Album (WPCR-18404).wav

     Peak level 100.0 %
     Extraction speed 8.4 X
     Range quality 99.9 %
     Test CRC A044963E
     Copy CRC A044963E
     Copy OK

No errors occurred

AccurateRip summary

Track  1  not present in database
Track  2  not present in database
Track  3  not present in database
Track  4  not present in database
Track  5  not present in database
Track  6  not present in database
Track  7  not present in database
Track  8  not present in database
Track  9  not present in database
Track 10  not present in database
Track 11  not present in database
Track 12  not present in database
Track 13  not present in database
Track 14  not present in database

None of the tracks are present in the AccurateRip database

End of status report

---- CUETools DB Plugin V2.1.6

[CTDB TOCID: btF6Ygm_ATDXEVqCkbV8Tec8zwI-] found
Submit result: btF6Ygm_ATDXEVqCkbV8Tec8zwI- has been confirmed
Track | CTDB Status
  1   | (30/30) Accurately ripped
  2   | (30/30) Accurately ripped
  3   | (30/30) Accurately ripped
  4   | (30/30) Accurately ripped
  5   | (30/30) Accurately ripped
  6   | (30/30) Accurately ripped
  7   | (30/30) Accurately ripped
  8   | (30/30) Accurately ripped
  9   | (30/30) Accurately ripped
10   | (30/30) Accurately ripped
11   | (30/30) Accurately ripped
12   | (30/30) Accurately ripped
13   | (30/30) Accurately ripped
14   | (28/30) Accurately ripped

Код:

REM GENRE Rock
REM DATE 2021
REM DISCID CC125E0E
REM COMMENT "ExactAudioCopy v1.5"
PERFORMER "Whitesnake"
TITLE "The Blues Album (WPCR-18404)"
REM COMPOSER ""
FILE "Whitesnake - The Blues Album (WPCR-18404).flac" WAVE
  TRACK 01 AUDIO
    TITLE "Steal Your Heart Away"
    PERFORMER "Whitesnake"
    REM COMPOSER ""
    INDEX 01 00:00:00
  TRACK 02 AUDIO
    TITLE "Good to Be Bad"
    PERFORMER "Whitesnake"
    REM COMPOSER ""
    INDEX 01 05:19:44
  TRACK 03 AUDIO
    TITLE "Give Me All Your Love"
    PERFORMER "Whitesnake"
    REM COMPOSER ""
    INDEX 01 10:33:70
  TRACK 04 AUDIO
    TITLE "Take Me Back Again"
    PERFORMER "Whitesnake"
    REM COMPOSER ""
    INDEX 01 13:47:14
  TRACK 05 AUDIO
    TITLE "Slow an’ Easy"
    PERFORMER "Whitesnake"
    REM COMPOSER ""
    INDEX 01 20:11:02
  TRACK 06 AUDIO
    TITLE "Too Many Tears"
    PERFORMER "Whitesnake"
    REM COMPOSER ""
    INDEX 01 26:20:07
  TRACK 07 AUDIO
    TITLE "Lay Down Your Love"
    PERFORMER "Whitesnake"
    REM COMPOSER ""
    INDEX 01 32:05:41
  TRACK 08 AUDIO
    TITLE "The River Song"
    PERFORMER "Whitesnake"
    REM COMPOSER ""
    INDEX 01 38:16:37
  TRACK 09 AUDIO
    TITLE "Whipping Boy Blues"
    PERFORMER "Whitesnake"
    REM COMPOSER ""
    INDEX 01 44:53:55
  TRACK 10 AUDIO
    TITLE "If You Want Me"
    PERFORMER "Whitesnake"
    REM COMPOSER ""
    INDEX 01 50:33:01
  TRACK 11 AUDIO
    TITLE "A Fool in Love"
    PERFORMER "Whitesnake"
    REM COMPOSER ""
    INDEX 01 54:40:49
  TRACK 12 AUDIO
    TITLE "Woman Trouble Blues"
    PERFORMER "Whitesnake"
    REM COMPOSER ""
    INDEX 01 60:29:01
  TRACK 13 AUDIO
    TITLE "Looking for Love"
    PERFORMER "Whitesnake"
    REM COMPOSER ""
    INDEX 01 66:11:44
  TRACK 14 AUDIO
    TITLE "Crying in the Rain"
    PERFORMER "Whitesnake"
    REM COMPOSER ""
    INDEX 01 72:33:71






раздаю с 12:00 до 02:00 ночи pb.wtf



Скачать Whitesnake - The Blues Album - 2021 через торрент https://i115.fastpic.org/big/2021/0805/9b/f9db46632ea5c510dcd636ca3e57af9b.png Скачать, смотреть онлайн Whitesnake - The Blues Album - 2021 бесплантно в хорошем качестве Трэклист Steal Your Heart Away (5:20) Good to Be Bad (5:15) Give Me All Your Love (3:14) Take Me Back Again (6:24) ... 10 10 1
Info! Золотая раздача, скачанное не засчитывается.
Торрент: Зарегистрирован [2021-08-05 09:09] · скачан: 9 раз
Статус: √ проверено
Размер: 620 MB
Как cкачать? Как скачать Whitesnake - The Blues Album - 2021 через торрент | UTorrent

28-11-2019 20:33  

Отключить вcю реклaмy на сайте

    Дорогой пользователь! Огромная просьба, поблагодарите релизера, оцените раздачу и оставьте свои комментарий, если Вы скачали Whitesnake - The Blues Album - 2021 через торрент бесплатно!
    Комментировать посты могут только пользователи прошедшие не сложную регистрацию
    Показать сообщения:    

    Whitesnake - The Blues Album - 2021 через торрент
    Скачать бесплатно Whitesnake - The Blues Album - 2021
    Whitesnake - The Blues Album - 2021 скачать торрент
    Whitesnake - The Blues Album - 2021 смотреть онлайн
    Cкачать фильм Whitesnake - The Blues Album - 2021 бесплатно
    Whitesnake - The Blues Album - 2021 скачать торрент в хорошем качестве
    Whitesnake - The Blues Album - 2021 смотреть онлайн бесплатно в хорошем качестве


    Вы не можете начинать темы
    Вы не можете отвечать на сообщения
    Вы не можете редактировать свои сообщения
    Вы не можете удалять свои сообщения
    Вы не можете голосовать в опросах
    Вы не можете прикреплять файлы к сообщениям
    Вы можете скачивать файлы