Присоединяйтесь к нам в Telegram!, здесь всегда актуальный адрес сайта, оперативная поддержка и многое другое!!

>

5.9

iTunes

7.4

iTunes

9.4

1 сезон

1

7.4

2 сезон

7.2

iTunes

7.3

1 сезон

13

6.1

iTunes

8.3

GOG

30

ULTIMATE

pack

9.9

Лицензия

ВАЖНО

ИГРА 18+

pack

7.3

RePack

MK11

7.7

RePack

jed

7.8

RePack

fifa19

8.5

RePack

RDR2

RePack

NEED FOR SPEED™ PAYBACK

5 сезон

9 сезон

Бесстыжие 9 сезон

Все сериалы

все сериалы на PB.wtf

RePack

FAR CRY 5

Anonymous, доброе утро, мы катастрофически не успеваем собрать деньги на оплату серверов, помогите нам пожалуйста 5,10,15р., для нас важна любая помощь . В качестве благодарности мы отключим Вам всю рекламу на сайте (укажите свой ник в строку Ваше имя)!

×
  
Magnet ссылка

Мейер Лански / Lansky (Итан Роквей) [2021, Биография, криминал, триллер, драма, HDRip-AVC] DUB [iTunes] от MediaBit pb.wtf

Мейер Лански через торрент pb.wtf

Размер: 2.74 GB | Добавлен: 3 мес. 19 д. назад | Торрент скачан:104 раза
Смотреть онлайн Мейер Лански | Скачать    Ребята, помогите собрать деньги на оплату серверов!!!

07-08-2021 07:33 Мейер Лански Скачать торрент  


Мейер Лански / Lansky
Информация о фильме:
Название: Мейер Лански
Оригинальное название: Lansky
Год выхода: 2021
Жанр: Биография, криминал, триллер, драма
Режиссер: Итан Роквей
В ролях: Анна-София Робб, Минка Келли, Сэм Уортингтон, Харви Кейтель, Джон Магаро, Джеки Круз, Дэвид Джеймс Эллиотт, Шэйн МакРей, Дэнни А. Абекейзер, Алон Абутбул

Описание: Бывший гангстер Мейер Лански в очередной раз попадает под прицел сотрудников ФБР, которые пытаются разыскать его миллионы, спрятанные по всей стране. Герой решает поведать им захватывающую историю о своей жизни и пролить свет на свою работу в качестве главы Национального преступного синдиката.



Страна: США
Студия: 120dB Films, Above the Clouds Media Group, Caliwood Pictures, Carte Blanche, Lucky 13 Productions
Продолжительность: 01:59:12
Перевод: Дублированный - iTunes



Информация о файле:
Кодек: AVC
Формат: MKV
Качество: HDRip-AVC
Видео: MPEG-4 AVC, 1024x428, 23.976 fps, 2463 kbps
Аудио RU: AC3, 6 ch, 48 kHz, 384 kbps
Аудио EN: AC3, 6 ch, 48 kHz, 448 kbps
Субтитры: Русские (Forced), английские
Навигация по главам: Да

x264 info: frame I:1441 Avg QP:10.34 size:111539
x264 info: frame P:33776 Avg QP:13.29 size: 30913
x264 info: frame B:136277 Avg QP:15.95 size: 7299
x264 info: consecutive B-frames: 1.8% 1.9% 5.8% 10.9% 12.5% 53.4% 5.2% 4.1% 0.8% 1.9% 0.3% 0.6% 0.6%
General
Unique ID : 204912638492511988191509171139804160538 (0x9A28BD17E0FD2F0F47156DB30A04621A)
Complete name : D:uTorrentРипы wolf1245Lansky.2021.DUB.HDRip-AVC.[wolf1245.MediaBit].mkv
Format : Matroska
Format version : Version 4
File size : 2.74 GiB
Duration : 1 h 59 min
Overall bit rate : 3 294 kb/s
Movie name : Lansky.2021.DUB.HDRip-AVC.[wolf1245.MediaBit]
Encoded date : UTC 2021-08-07 07:12:37
Writing application : mkvmerge v60.0.0 ('Are We Copies?') 64-bit
Writing library : libebml v1.4.2 + libmatroska v1.6.4
Video
ID : 1
Format : AVC
Format/Info : Advanced Video Codec
Format profile : High@L4.1
Format settings : CABAC / 14 Ref Frames
Format settings, CABAC : Yes
Format settings, Reference frames : 14 frames
Codec ID : V_MPEG4/ISO/AVC
Duration : 1 h 59 min
Bit rate : 2 463 kb/s
Width : 1 024 pixels
Height : 428 pixels
Display aspect ratio : 2.40:1
Frame rate mode : Constant
Frame rate : 23.976 (24000/1001) FPS
Color space : YUV
Chroma subsampling : 4:2:0
Bit depth : 8 bits
Scan type : Progressive
Bits/(Pixel*Frame) : 0.234
Stream size : 2.05 GiB (75%)
Title : [wolf1245.MediaBit]
Writing library : x264 core 157 r2958 57baac4
Encoding settings : cabac=1 / ref=14 / deblock=1:-3:-3 / analyse=0x3:0x133 / me=umh / subme=11 / psy=1 / psy_rd=1.03:0.10 / mixed_ref=1 / me_range=48 / chroma_me=1 / trellis=2 / 8x8dct=1 / cqm=0 / deadzone=21,11 / fast_pskip=1 / chroma_qp_offset=-3 / threads=10 / lookahead_threads=2 / sliced_threads=0 / nr=0 / decimate=1 / interlaced=0 / bluray_compat=0 / constrained_intra=0 / bframes=12 / b_pyramid=2 / b_adapt=2 / b_bias=0 / direct=3 / weightb=1 / open_gop=0 / weightp=2 / keyint=240 / keyint_min=24 / scenecut=40 / intra_refresh=0 / rc_lookahead=60 / rc=2pass / mbtree=1 / bitrate=2463 / ratetol=1.0 / qcomp=0.60 / qpmin=0 / qpmax=69 / qpstep=4 / cplxblur=20.0 / qblur=0.5 / vbv_maxrate=50000 / vbv_bufsize=62500 / nal_hrd=none / filler=0 / ip_ratio=1.40 / aq=3:0.80
Language : English
Default : Yes
Forced : No
Audio #1
ID : 2
Format : AC-3
Format/Info : Audio Coding 3
Commercial name : Dolby Digital
Codec ID : A_AC3
Duration : 1 h 59 min
Bit rate mode : Constant
Bit rate : 384 kb/s
Channel(s) : 6 channels
Channel layout : L R C LFE Ls Rs
Sampling rate : 48.0 kHz
Frame rate : 31.250 FPS (1536 SPF)
Compression mode : Lossy
Stream size : 327 MiB (12%)
Title : DUB | iTunes
Language : Russian
Service kind : Complete Main
Default : Yes
Forced : No
Audio #2
ID : 3
Format : AC-3
Format/Info : Audio Coding 3
Commercial name : Dolby Digital
Codec ID : A_AC3
Duration : 1 h 59 min
Bit rate mode : Constant
Bit rate : 448 kb/s
Channel(s) : 6 channels
Channel layout : L R C LFE Ls Rs
Sampling rate : 48.0 kHz
Frame rate : 31.250 FPS (1536 SPF)
Compression mode : Lossy
Stream size : 382 MiB (14%)
Title : Original
Language : English
Service kind : Complete Main
Default : No
Forced : No
Text #1
ID : 4
Format : UTF-8
Codec ID : S_TEXT/UTF8
Codec ID/Info : UTF-8 Plain Text
Duration : 1 h 49 min
Bit rate : 1 b/s
Count of elements : 24
Stream size : 1.40 KiB (0%)
Title : Forced
Language : Russian
Default : Yes
Forced : Yes
Text #2
ID : 5
Format : UTF-8
Codec ID : S_TEXT/UTF8
Codec ID/Info : UTF-8 Plain Text
Duration : 1 h 58 min
Bit rate : 60 b/s
Count of elements : 1823
Stream size : 52.8 KiB (0%)
Language : English
Default : No
Forced : No
Menu
00:00:00.000 : :Chapter 01
00:08:12.867 : :Chapter 02
00:16:53.637 : :Chapter 03
00:24:35.140 : :Chapter 04
00:31:25.508 : :Chapter 05
00:40:10.574 : :Chapter 06
00:48:39.458 : :Chapter 07
00:58:04.105 : :Chapter 08
01:05:22.668 : :Chapter 09
01:14:01.562 : :Chapter 10
01:21:26.339 : :Chapter 11
01:30:11.948 : :Chapter 12
01:38:22.313 : :Chapter 13
01:46:56.493 : :Chapter 14
01:59:12.103 : :Chapter 15
Релиз от: &
Автор релиза:
pb.wtf



Скачать Мейер Лански через торрент https://i115.fastpic.org/big/2021/0807/e0/53e247d5921e43f5de0379ff305667e0.jpg Скачать, смотреть онлайн Мейер Лански бесплантно в хорошем качестве Описание: Бывший гангстер Мейер Лански в очередной раз попадает под прицел сотрудников ФБР, которые пытаются разыскать его миллионы, ... 10 10 3
Торрент: Зарегистрирован [2021-08-07 07:33] · скачан: 104 раз
Статус: √ проверено
Размер: 2.74 GB
Как cкачать? Как скачать Мейер Лански через торрент | UTorrent

28-11-2019 20:33  

Отключить всю рекламу на сайте

    Дорогой пользователь! Огромная просьба, поблагодарите релизера, оцените раздачу и оставьте свои комментарий, если Вы скачали Мейер Лански через торрент бесплатно!
    Комментировать посты могут только пользователи прошедшие не сложную регистрацию
    Показать сообщения:    

    Мейер Лански через торрент
    Скачать бесплатно Мейер Лански
    Мейер Лански скачать торрент
    Мейер Лански смотреть онлайн
    Cкачать фильм Мейер Лански бесплатно
    Мейер Лански скачать торрент в хорошем качестве
    Мейер Лански смотреть онлайн бесплатно в хорошем качестве


    Вы не можете начинать темы
    Вы не можете отвечать на сообщения
    Вы не можете редактировать свои сообщения
    Вы не можете удалять свои сообщения
    Вы не можете голосовать в опросах
    Вы не можете прикреплять файлы к сообщениям
    Вы можете скачивать файлы