Присоединяйтесь к нам в Telegram!, здесь всегда актуальный адрес сайта, оперативная поддержка и многое другое!!

>

5.9

iTunes

7.4

iTunes

9.4

1 сезон

1

7.4

2 сезон

7.2

iTunes

7.3

1 сезон

13

6.1

iTunes

8.3

GOG

30

ULTIMATE

pack

9.9

Лицензия

ВАЖНО

ИГРА 18+

pack

7.3

RePack

MK11

7.7

RePack

jed

7.8

RePack

fifa19

8.5

RePack

RDR2

RePack

NEED FOR SPEED™ PAYBACK

5 сезон

9 сезон

Бесстыжие 9 сезон

Все сериалы

все сериалы на PB.wtf

RePack

FAR CRY 5

Anonymous, доброй ночи, мы катастрофически не успеваем собрать деньги на оплату серверов, помогите нам пожалуйста 5,10,15р., для нас важна любая помощь . В качестве благодарности мы отключим Вам всю рекламу на сайте (укажите свой ник в строку Ваше имя)!

×
  
Magnet ссылка

Здесь и сегодня / Here Today (Билли Кристал) [2021, Драма, комедия, HDRip-AVC] MVO [iTunes] от MediaBit pb.wtf

Здесь и сегодня через торрент pb.wtf

Размер: 2.33 GB | Добавлен: 3 мес. 19 д. назад | Торрент скачан:7 раз
Смотреть онлайн Здесь и сегодня | Скачать    Ребята, помогите собрать деньги на оплату серверов!!!

07-08-2021 14:16 Здесь и сегодня Скачать торрент  


Здесь и сегодня / Here Today
Информация о фильме:
Название: Здесь и сегодня
Оригинальное название: Here Today
Год выхода: 2021
Жанр: Драма, комедия
Режиссер: Билли Кристал

В ролях: Тиффани Хэддиш, Билли Кристал, Пенн Бэджли, Лаура Бенанти, Луиса Краузе, Джоэнна Адлер, Анна Дивер Смит, Сьюзан Пурфар, Ньямби Ньямби, Кэтрин Грейс, Шэрон Стоун, Кевин Клайн

Описание: Комедия рассказывает о признанном авторе комедий Чарли Бернсе, который медленно, но верно теряет свою связь с реальностью. Однажды он знакомится с талантливой уличной певицей Эммой Пейдж. Своей странноватой, но трогательной дружбой они стирают барьер между поколениями и заново познают значения таких вещей, как любовь и доверие.



Страна: США
Студия: Astute Films, Big Head Productions, Big Indie Picturesm, Crystal's Face Productions, Rocket Science
Продолжительность: 01:57:01
Перевод: Профессиональный (многоголосый, закадровый) - iTunes



Информация о файле:
Кодек: AVC
Формат: MKV
Качество: HDRip-AVC
Видео: MPEG-4 AVC, 1024x554, 23.976 fps, 2016 kbps
Аудио RU: AC3, 6 ch, 48 kHz, 384 kbps
Аудио EN: AC3, 6 ch, 48 kHz, 448 kbps
Субтитры: Русские (Forced, full), украинские (Full), английские
Навигация по главам: Да

---------------------------------------------------------------------
x264 info: frame I:1599 Avg QP:13.50 size: 95176
x264 info: frame P:40160 Avg QP:16.97 size: 23651
x264 info: frame B:126582 Avg QP:20.70 size: 5267
x264 info: consecutive B-frames: 3.1% 4.3% 10.4% 27.0% 11.8% 37.7% 3.8% 0.8% 0.2% 0.2% 0.1% 0.2% 0.5%
General
Unique ID : 275046023203752811178299702565703715276 (0xCEEBEFED78A283849B9C9104977309CC)
Complete name : D:uTorrentРипы wolf1245Here.Today.2021.MVO.HDRip-AVC.[wolf1245.MediaBit].mkv
Format : Matroska
Format version : Version 4
File size : 2.33 GiB
Duration : 1 h 57 min
Overall bit rate : 2 848 kb/s
Movie name : Here.Today.2021.MVO.HDRip-AVC.[wolf1245.MediaBit]
Encoded date : UTC 2021-08-07 14:01:27
Writing application : mkvmerge v60.0.0 ('Are We Copies?') 64-bit
Writing library : libebml v1.4.2 + libmatroska v1.6.4 / Lavf58.29.100
ENCODING_INFO : MATROSKA,WEBM > MKV Пользовательский 2 3 4
Video
ID : 1
Format : AVC
Format/Info : Advanced Video Codec
Format profile : High@L4.1
Format settings : CABAC / 14 Ref Frames
Format settings, CABAC : Yes
Format settings, Reference frames : 14 frames
Codec ID : V_MPEG4/ISO/AVC
Duration : 1 h 57 min
Bit rate : 2 016 kb/s
Width : 1 024 pixels
Height : 554 pixels
Display aspect ratio : 1.85:1
Frame rate mode : Constant
Frame rate : 23.976 (24000/1001) FPS
Color space : YUV
Chroma subsampling : 4:2:0
Bit depth : 8 bits
Scan type : Progressive
Bits/(Pixel*Frame) : 0.148
Stream size : 1.65 GiB (71%)
Title : .[wolf1245.MediaBit]
Writing library : x264 core 157 r2958 57baac4
Encoding settings : cabac=1 / ref=14 / deblock=1:-3:-2 / analyse=0x3:0x133 / me=umh / subme=11 / psy=1 / psy_rd=0.98:0.05 / mixed_ref=1 / me_range=48 / chroma_me=1 / trellis=2 / 8x8dct=1 / cqm=0 / deadzone=21,11 / fast_pskip=1 / chroma_qp_offset=-3 / threads=10 / lookahead_threads=2 / sliced_threads=0 / nr=0 / decimate=1 / interlaced=0 / bluray_compat=0 / constrained_intra=0 / bframes=12 / b_pyramid=2 / b_adapt=2 / b_bias=0 / direct=3 / weightb=1 / open_gop=0 / weightp=2 / keyint=240 / keyint_min=24 / scenecut=40 / intra_refresh=0 / rc_lookahead=60 / rc=2pass / mbtree=1 / bitrate=2016 / ratetol=1.0 / qcomp=0.60 / qpmin=0 / qpmax=69 / qpstep=4 / cplxblur=20.0 / qblur=0.5 / vbv_maxrate=50000 / vbv_bufsize=62500 / nal_hrd=none / filler=0 / ip_ratio=1.40 / aq=3:0.80
Language : English
Default : Yes
Forced : No
Audio #1
ID : 2
Format : AC-3
Format/Info : Audio Coding 3
Commercial name : Dolby Digital
Codec ID : A_AC3
Duration : 1 h 56 min
Bit rate mode : Constant
Bit rate : 384 kb/s
Channel(s) : 6 channels
Channel layout : L R C LFE Ls Rs
Sampling rate : 48.0 kHz
Frame rate : 31.250 FPS (1536 SPF)
Compression mode : Lossy
Stream size : 321 MiB (13%)
Title : MVO | iTunes
Language : Russian
Service kind : Complete Main
Default : Yes
Forced : No
Audio #2
ID : 3
Format : AC-3
Format/Info : Audio Coding 3
Commercial name : Dolby Digital
Codec ID : A_AC3
Duration : 1 h 56 min
Bit rate mode : Constant
Bit rate : 448 kb/s
Channel(s) : 6 channels
Channel layout : L R C LFE Ls Rs
Sampling rate : 48.0 kHz
Frame rate : 31.250 FPS (1536 SPF)
Compression mode : Lossy
Stream size : 374 MiB (16%)
Title : Original
Language : English
Service kind : Complete Main
Default : No
Forced : No
Text #1
ID : 4
Format : UTF-8
Codec ID : S_TEXT/UTF8
Codec ID/Info : UTF-8 Plain Text
Duration : 1 h 53 min
Bit rate : 1 b/s
Count of elements : 22
Stream size : 1 006 Bytes (0%)
Title : Forced
Language : Russian
Default : Yes
Forced : Yes
Text #2
ID : 5
Format : UTF-8
Codec ID : S_TEXT/UTF8
Codec ID/Info : UTF-8 Plain Text
Duration : 1 h 55 min
Bit rate : 136 b/s
Count of elements : 1922
Stream size : 115 KiB (0%)
Title : Full
Language : Russian
Default : No
Forced : No
Text #3
ID : 6
Format : UTF-8
Codec ID : S_TEXT/UTF8
Codec ID/Info : UTF-8 Plain Text
Duration : 1 h 55 min
Bit rate : 115 b/s
Count of elements : 1921
Stream size : 97.2 KiB (0%)
Title : Full
Language : Ukrainian
Default : No
Forced : No
Text #4
ID : 7
Format : UTF-8
Codec ID : S_TEXT/UTF8
Codec ID/Info : UTF-8 Plain Text
Duration : 1 h 51 min
Bit rate : 83 b/s
Count of elements : 1894
Stream size : 67.6 KiB (0%)
Title : Full
Language : English
Default : No
Forced : No
Menu
00:00:00.000 : :Глава 01
00:10:49.774 : :Глава 02
00:15:06.364 : :Глава 03
00:22:49.660 : :Глава 04
00:31:18.460 : :Глава 05
00:41:06.297 : :Глава 06
00:52:06.248 : :Глава 07
00:58:55.657 : :Глава 08
01:02:50.976 : :Глава 09
01:10:48.578 : :Глава 10
01:15:02.957 : :Глава 11
01:22:39.163 : :Глава 12
01:29:32.200 : :Глава 13
01:35:53.539 : :Глава 14
01:39:51.444 : :Глава 15
01:45:09.887 : :Глава 16
01:52:42.589 : :Глава 17
01:56:49.002 : :Глава 18
Релиз от: &
Автор релиза:
pb.wtf



Скачать Здесь и сегодня через торрент https://i115.fastpic.org/big/2021/0807/ad/233c45b4c4feac91e7e8ef862518a3ad.jpg Скачать, смотреть онлайн Здесь и сегодня бесплантно в хорошем качестве Описание: Комедия рассказывает о признанном авторе комедий Чарли Бернсе, который медленно, но верно теряет свою связь с реальностью. ... 10 10 1
Торрент: Зарегистрирован [2021-08-07 14:16] · скачан: 7 раз
Статус: √ проверено
Размер: 2.33 GB
Как cкачать? Как скачать Здесь и сегодня через торрент | UTorrent

28-11-2019 20:33  

Отключить всю рекламу на сайте

    Дорогой пользователь! Огромная просьба, поблагодарите релизера, оцените раздачу и оставьте свои комментарий, если Вы скачали Здесь и сегодня через торрент бесплатно!
    Комментировать посты могут только пользователи прошедшие не сложную регистрацию
    Показать сообщения:    

    Здесь и сегодня через торрент
    Скачать бесплатно Здесь и сегодня
    Здесь и сегодня скачать торрент
    Здесь и сегодня смотреть онлайн
    Cкачать фильм Здесь и сегодня бесплатно
    Здесь и сегодня скачать торрент в хорошем качестве
    Здесь и сегодня смотреть онлайн бесплатно в хорошем качестве


    Вы не можете начинать темы
    Вы не можете отвечать на сообщения
    Вы не можете редактировать свои сообщения
    Вы не можете удалять свои сообщения
    Вы не можете голосовать в опросах
    Вы не можете прикреплять файлы к сообщениям
    Вы можете скачивать файлы