Присоединяйтесь к нам в Telegram!, здесь всегда актуальный адрес сайта, оперативная поддержка и многое другое!!

>

5.9

iTunes

7.4

iTunes

9.4

1 сезон

1

7.4

2 сезон

7.2

iTunes

7.3

1 сезон

13

6.1

iTunes

8.3

GOG

30

ULTIMATE

pack

9.9

Лицензия

ВАЖНО

ИГРА 18+

pack

7.3

RePack

MK11

7.7

RePack

jed

7.8

RePack

fifa19

8.5

RePack

RDR2

RePack

NEED FOR SPEED™ PAYBACK

5 сезон

9 сезон

Бесстыжие 9 сезон

Все сериалы

все сериалы на PB.wtf

RePack

FAR CRY 5

Anonymous, доброе утро, мы катастрофически не успеваем собрать деньги на оплату серверов, помогите нам пожалуйста 5,10,15р., для нас важна любая помощь . В качестве благодарности мы отключим Вам всю рекламу на сайте (укажите свой ник в строку Ваше имя)!

×
  
Magnet ссылка

Ледяной драйв / The Ice Road (Джонатан Хенсли) [2021, боевик, триллер, WEB-DLRip-AVC] [Локализованный видеоряд] Dub [КиноПоиск HD] pb.wtf

Ледяной драйв через торрент pb.wtf

Раздают: 29 [ 34 KB/s ]
Размер: 1.48 GB | Добавлен: 3 мес. 22 д. назад | Торрент скачан:308 раз
Смотреть онлайн Ледяной драйв | Скачать    Ребята, помогите собрать деньги на оплату серверов!!!

07-08-2021 15:53 Ледяной драйв Скачать торрент  

Ледяной драйв
The Ice Road

«This mission is on thin ice»

Страна: США
Жанр: боевик, триллер
Год выпуска: 2021
Продолжительность: 01:44:34

Перевод: Профессиональный (полное дублирование) [Мосфильм-Мастер / КиноПоиск HD]
Субтитры: русские (полные)
Оригинальная аудиодорожка: нет

Режиссер: Джонатан Хенсли / Jonathan Hensleigh

В ролях: Лиам Нисон, Лоренс Фишбёрн, Бенджамин Уокер, Эмбер Мидфандер, Маркус Томас, Холт Маккэллани, Мартин Сенсмейер, Мэтт МакКой, Мэтт Сэлинджер, Чад Брюс

Описание: Север Канады. Ненадёжный апрельский лёд, вес грузовика — 33 тонны. Проехать по замерзшей поверхности озера возможно только на определенной скорости, а остановка или ускорение означают верную смерть. Но именно такая задача стоит перед колонной грузовиков — только они могут спасти людей, оказавшихся в обрушившейся алмазной шахте. Однако ни трескающийся под колёсами лёд, ни снежная буря не сравнятся с испытаниями, которые ждут водителей впереди.



Релиз:

Автор рипа: stalkerok

Сэмпл

Качество видео: WEB-DLRip-AVC | Локализованный видеоряд | Исходник: The.Ice.Road.2021.Local.WEB-DL.1080p.seleZen
Формат видео: MKV
Видео кодек: AVC
Аудио кодек: AC3
Видео: AVC, 1576 Кбит/сек, 1046x438 (2.40:1), 25 кадр/сек
Аудио: AC3, 448 Кбит/сек, 48 КГц, 5.1 - русский
---[Information] [07.08.2021 16:32:11] x264 [info]: frame I:1415 Avg QP:16.74 size: 48227
---[Information] [07.08.2021 16:32:11] x264 [info]: frame P:42265 Avg QP:18.92 size: 14566
---[Information] [07.08.2021 16:32:11] x264 [info]: frame B:113180 Avg QP:22.02 size: 4882
---[Information] [07.08.2021 16:32:11] x264 [info]: consecutive B-frames: 3.8% 5.0% 13.3% 49.8% 9.7% 11.1% 2.3% 3.2% 0.7% 0.2% 0.1% 0.1% 0.1% 0.1% 0.6%

General
Unique ID : 268817672215615621273874252432359117705 (0xCA3C6683E507F0132017EF1DB58D5389)
Complete name : J:\The.Ice.Road.2021\The.Ice.Road.2021.WEB-DLRip.x264.Rus.stalkerok.New-Team.mkv
Format : Matroska
Format version : Version 4
File size : 1.48 GiB
Duration : 1 h 44 min
Overall bit rate : 2 026 kb/s
Movie name : The Ice Road (2021) | Rip by stalkerok
Encoded date : UTC 2021-08-07 15:34:38
Writing application : mkvmerge v60.0.0 ('Are We Copies?') 64-bit
Writing library : libebml v1.4.2 + libmatroska v1.6.4

Video
ID : 1
Format : AVC
Format/Info : Advanced Video Codec
Format profile : High@L4.1
Format settings : CABAC / 12 Ref Frames
Format settings, CABAC : Yes
Format settings, Reference frames : 12 frames
Codec ID : V_MPEG4/ISO/AVC
Duration : 1 h 44 min
Bit rate : 1 577 kb/s
Width : 1 046 pixels
Height : 438 pixels
Display aspect ratio : 2.40:1
Frame rate mode : Constant
Frame rate : 25.000 FPS
Color space : YUV
Chroma subsampling : 4:2:0
Bit depth : 8 bits
Scan type : Progressive
Bits/(Pixel*Frame) : 0.138
Stream size : 1.15 GiB (78%)
Writing library : x264 core 164 r3065+55M 280faca t_mod_New [(8 & 10)-bit@all X86_64]
Encoding settings : cabac=1 / ref=12 / deblock=1:-3:-2 / analyse=0x3:0x133 / me=umh / subme=10 / psy=1 / fade_compensate=0.00 / psy_rd=1.00:0.00 / mixed_ref=1 / me_range=32 / chroma_me=1 / trellis=2 / 8x8dct=1 / cqm=0 / deadzone=21,11 / fast_pskip=0 / chroma_qp_offset=-2 / threads=12 / lookahead_threads=3 / sliced_threads=0 / nr=0 / decimate=1 / interlaced=0 / bluray_compat=0 / constrained_intra=0 / fgo=0 / bframes=14 / b_pyramid=2 / b_adapt=2 / b_bias=0 / direct=3 / weightb=1 / open_gop=0 / weightp=2 / keyint=250 / keyint_min=25 / scenecut=40 / intra_refresh=0 / rc_lookahead=60 / rc=crf / mbtree=0 / crf=19.6000 / qcomp=0.65 / qpmin=0:0:0 / qpmax=69:69:69 / qpstep=4 / vbv_maxrate=50000 / vbv_bufsize=62500 / crf_max=0.0 / nal_hrd=none / filler=0 / ip_ratio=1.40 / pb_ratio=1.30 / aq=3:0.90 / aq-sensitivity=10.00 / aq-factor=1.00:1.00:1.00 / aq2=0 / aq3=0
Default : Yes
Forced : No

Audio
ID : 2
Format : AC-3
Format/Info : Audio Coding 3
Commercial name : Dolby Digital
Codec ID : A_AC3
Duration : 1 h 44 min
Bit rate mode : Constant
Bit rate : 448 kb/s
Channel(s) : 6 channels
Channel layout : L R C LFE Ls Rs
Sampling rate : 48.0 kHz
Frame rate : 31.250 FPS (1536 SPF)
Compression mode : Lossy
Stream size : 335 MiB (22%)
Language : Russian
Service kind : Complete Main
Default : Yes
Forced : No

Text
ID : 3
Format : UTF-8
Codec ID : S_TEXT/UTF8
Codec ID/Info : UTF-8 Plain Text
Duration : 1 h 36 min
Bit rate : 71 b/s
Count of elements : 856
Stream size : 50.1 KiB (0%)
Title : Full
Language : Russian
Default : No
Forced : No
pb.wtf



Скачать Ледяной драйв через торрент http://i6.imageban.ru/out/2017/09/18/2ff75c0c358795c5946784cc1680714d.png Скачать, смотреть онлайн Ледяной драйв бесплантно в хорошем качестве Описание: Север Канады. Ненадёжный апрельский лёд, вес грузовика — 33 тонны. Проехать по замерзшей поверхности озера возможно только на ... 9.9 10 9
Info! Золотая раздача, скачанное не засчитывается.
Торрент: Зарегистрирован [2021-08-07 15:53] · скачан: 308 раз
Статус: √ проверено
Размер: 1.48 GB
Как cкачать? Как скачать Ледяной драйв через торрент | UTorrent

% Раздел Тема Автор DL S | L
Фильмы [HD 720p, 1080p] (Хороший звук DUB, MVO) [ 7.1 GB ] Ледяной драйв / The Ice Road [2021 BDRip 1080p] DUB [Мосфильм-Мастер] bober100 Скачать
6 | 0
Фильмы 2021 [DVDrip, WEB-DLRip, HDrip] (DUB, MVO) [ 2.18 GB ] Ледяной драйв / The Ice Road [2021 BDRip] - [Мосфильм-Мастер] Twi7ter Скачать
65 | 11
Фильмы 2021 [DVDrip, WEB-DLRip, HDrip] (DUB, MVO) [ 1.46 GB ] Ледяной драйв / The Ice Road [2021 BDRip] - [Мосфильм-Мастер] Twi7ter Скачать
22 | 1
Фильмы 2021 [DVDrip, WEB-DLRip, HDrip] (DUB, MVO) [ 2.2 GB ] Ледяной драйв / The Ice Road [2021 WEB-DLRip-AVC] от MediaBit Lithuania Скачать
3 | 0
Фильмы 2021 [DVDrip, WEB-DLRip, HDrip] (DUB, MVO) [ 1.46 GB ] Ледяной драйв / The Ice Road [2021 WEB-DLRip] - [Мосфильм-Мастер] Twi7ter Скачать
7 | 0
Фильмы 2021 [DVDrip, WEB-DLRip, HDrip] (DUB, MVO) [ 1.57 GB ] Ледяной драйв / The Ice Road [2021 WEB-DLRip-AVC] killermax2013 Скачать
1 | 0
T Ultra HD (UHD: 2K, 4K, 8K) — видео сверхвысокой чёткости [ 12.09 GB ] Ледяной драйв / The Ice Road [2021 WEBRip 2160p] DUB [Line] +DVO [Pazl Voice] bober100 Скачать
2 | 0

28-11-2019 20:33  

Отключить всю рекламу на сайте

08-08-2021 23:29 Ледяной драйв Скачать торрент  

хороший фильм , концовка ток отстойpb.wtf



    Дорогой пользователь! Огромная просьба, поблагодарите релизера, оцените раздачу и оставьте свои комментарий, если Вы скачали Ледяной драйв через торрент бесплатно!
    Комментировать посты могут только пользователи прошедшие не сложную регистрацию
    Показать сообщения:    

    Ледяной драйв через торрент
    Скачать бесплатно Ледяной драйв
    Ледяной драйв скачать торрент
    Ледяной драйв смотреть онлайн
    Cкачать фильм Ледяной драйв бесплатно
    Ледяной драйв скачать торрент в хорошем качестве
    Ледяной драйв смотреть онлайн бесплатно в хорошем качестве


    Вы не можете начинать темы
    Вы не можете отвечать на сообщения
    Вы не можете редактировать свои сообщения
    Вы не можете удалять свои сообщения
    Вы не можете голосовать в опросах
    Вы не можете прикреплять файлы к сообщениям
    Вы можете скачивать файлы