Доктор Стрэндж

Лицензия

Добыча

Дубляж

Дом дракона

1 сезон

Тор

Дубляж

В эфире

Дубляж

Там, где раки поют

MVO

Властелин колец

1 сезон

Ultimate

pack

Рекомендуем

30

Пиратка

ВАЖНО

ВАЖНО

Ghostwire

Пиратка

jed

RePack

nioh2

RePack

RDR2

RePack

NEED FOR SPEED™ PAYBACK

RePack

скачать торрент

Кинопоиск HD

Острые козырьки 6 сезон

6 сезон

FAR CRY 6

RePack

скачать торрент

Лицензия

скачать торрент

MVO

1

1 сезон

скачать торрент

1 сезон

скачать торрент

Лицензия

  

Красавицы и чудовища / Eden (Меган Гриффитс) [2012, Детектив, триллер, криминал, HDRip-AVC] MVO [IVI] от MediaBit

Красавицы и чудовища через торрент pb.wtf

Размер: 2.38 GB | Добавлен: 1 год 3 мес. назад | Торрент скачан:29 раз
Смотреть онлайн | Скачать   

08-08-2021 07:14 Красавицы и чудовища Скачать торрент  


Красавицы и чудовища / Eden
Информация Описание:
Название: Красавицы и чудовища
Оригинальное название: Eden
Год выхода: 2012
Жанр: Драма, триллер, криминал, реальные события
Режиссер: Меган Гриффитс
В ролях: Джейми Чон, Мэтью О’Лири, Бо Бриджес, Эдди Мартинес, Танту Кардинал, Трэйси Фэирэуэй, Скотт Мехловиц, Роман Ройтберг, Джон Фаррадж, Лаура Кай Чен

Описание: Юная американка корейского происхождения, похищенная и принужденная заниматься проституцией, должна объединить усилия со своими похитителями в отчаянной схватке за жизнь.



Страна: США
Студия: Centripetal Films
Продолжительность: 01:38:07
Перевод: Профессиональный (многоголосый, закадровый) - IVI



Информация о файле:
Кодек: AVC
Формат: MKV
Качество: HDRip-AVC
Видео: MPEG-4 AVC, 1024x436, 23.976, 2258 kbps
Аудио RU: AC3, 6 ch, 48 kHz, 384 kbps
Аудио EN: AC3, 6 ch, 48 kHz, 448 kbps
Аудио UKR: AC3, 6 ch, 48 kHz, 384 kbps
Навигация по главам: Да

-----------------------------------------------
x264 info: frame I:983 Avg QP:14.73 size: 71988
x264 info: frame P:26489 Avg QP:18.15 size: 25665
x264 info: frame B:113687 Avg QP:20.51 size: 8014
x264 info: consecutive B-frames: 1.3% 1.5% 4.3% 12.0% 13.5% 43.0% 10.8% 10.4% 1.0% 0.6% 0.2% 0.2% 1.3%
General
Unique ID : 1350684352407022077460547677467552981 (0x10421E14B65D47C52D9FADF9F69ACD5)
Complete name : D:uTorrentРипы wolf1245Eden.2012.MVO.IVI.HDRip-AVC.[wolf1245.MediaBit].mkv
Format : Matroska
Format version : Version 4
File size : 2.38 GiB
Duration : 1 h 38 min
Overall bit rate : 3 476 kb/s
Movie name : Eden.2012.MVO.IVI.HDRip-AVC.[wolf1245.MediaBit]
Encoded date : UTC 2021-08-08 06:56:42
Writing application : mkvmerge v60.0.0 ('Are We Copies?') 64-bit
Writing library : libebml v1.4.2 + libmatroska v1.6.4
Video
ID : 1
Format : AVC
Format/Info : Advanced Video Codec
Format profile : [email protected]
Format settings : CABAC / 15 Ref Frames
Format settings, CABAC : Yes
Format settings, Reference frames : 15 frames
Codec ID : V_MPEG4/ISO/AVC
Duration : 1 h 38 min
Bit rate : 2 258 kb/s
Width : 1 024 pixels
Height : 436 pixels
Display aspect ratio : 2.35:1
Frame rate mode : Constant
Frame rate : 23.976 (24000/1001) FPS
Color space : YUV
Chroma subsampling : 4:2:0
Bit depth : 8 bits
Scan type : Progressive
Bits/(Pixel*Frame) : 0.211
Stream size : 1.55 GiB (65%)
Title : [wolf1245.MediaBit]
Writing library : x264 core 157 r2958 57baac4
Encoding settings : cabac=1 / ref=15 / deblock=1:-3:-3 / analyse=0x3:0x133 / me=umh / subme=11 / psy=1 / psy_rd=1.00:0.05 / mixed_ref=1 / me_range=48 / chroma_me=1 / trellis=2 / 8x8dct=1 / cqm=0 / deadzone=21,11 / fast_pskip=1 / chroma_qp_offset=-3 / threads=10 / lookahead_threads=2 / sliced_threads=0 / nr=0 / decimate=1 / interlaced=0 / bluray_compat=0 / constrained_intra=0 / bframes=12 / b_pyramid=2 / b_adapt=2 / b_bias=0 / direct=3 / weightb=1 / open_gop=0 / weightp=2 / keyint=240 / keyint_min=24 / scenecut=40 / intra_refresh=0 / rc_lookahead=60 / rc=2pass / mbtree=1 / bitrate=2258 / ratetol=1.0 / qcomp=0.60 / qpmin=0 / qpmax=69 / qpstep=4 / cplxblur=20.0 / qblur=0.5 / vbv_maxrate=50000 / vbv_bufsize=62500 / nal_hrd=none / filler=0 / ip_ratio=1.40 / aq=1:0.80
Language : English
Default : Yes
Forced : No
Color range : Limited
Matrix coefficients : BT.709
Audio #1
ID : 2
Format : AC-3
Format/Info : Audio Coding 3
Commercial name : Dolby Digital
Codec ID : A_AC3
Duration : 1 h 38 min
Bit rate mode : Constant
Bit rate : 384 kb/s
Channel(s) : 6 channels
Channel layout : L R C LFE Ls Rs
Sampling rate : 48.0 kHz
Frame rate : 31.250 FPS (1536 SPF)
Compression mode : Lossy
Stream size : 269 MiB (11%)
Title : MVO | IVI
Language : Russian
Service kind : Complete Main
Default : Yes
Forced : No
Audio #2
ID : 3
Format : AC-3
Format/Info : Audio Coding 3
Commercial name : Dolby Digital
Codec ID : A_AC3
Duration : 1 h 38 min
Bit rate mode : Constant
Bit rate : 384 kb/s
Channel(s) : 6 channels
Channel layout : L R C LFE Ls Rs
Sampling rate : 48.0 kHz
Frame rate : 31.250 FPS (1536 SPF)
Compression mode : Lossy
Stream size : 269 MiB (11%)
Title : MVO | IVI
Language : Ukrainian
Service kind : Complete Main
Default : No
Forced : No
Audio #3
ID : 4
Format : AC-3
Format/Info : Audio Coding 3
Commercial name : Dolby Digital
Codec ID : A_AC3
Duration : 1 h 38 min
Bit rate mode : Constant
Bit rate : 448 kb/s
Channel(s) : 6 channels
Channel layout : L R C LFE Ls Rs
Sampling rate : 48.0 kHz
Frame rate : 31.250 FPS (1536 SPF)
Compression mode : Lossy
Stream size : 314 MiB (13%)
Title : Original
Language : English
Service kind : Complete Main
Default : No
Forced : No
Menu
00:00:00.000 : :00:00:00.000
00:09:03.710 : :00:09:03.710
00:16:45.421 : :00:16:45.421
00:24:13.535 : :00:24:13.535
00:33:11.573 : :00:33:11.573
00:41:35.034 : :00:41:35.034
00:50:48.003 : :00:50:48.003
01:01:15.171 : :01:01:15.171
01:10:30.935 : :01:10:30.935
01:16:48.270 : :01:16:48.270
01:23:58.992 : :01:23:58.992
01:33:19.761 : :01:33:19.761
Релиз от: amp;




Скачать Красавицы и чудовища через торрент https://i115.fastpic.org/big/2021/0808/21/ed51f26fdd85c34f0a47686760aa7d21.png Скачать, смотреть онлайн Красавицы и чудовища бесплантно в хорошем качестве Описание: Название: Красавицы и чудовища Оригинальное название: Eden Год выхода: 2012 Жанр: Драма, триллер, криминал, реальные события ... 10 10 3
Торрент: Зарегистрирован [2021-08-08 07:14] · скачан: 29 раз
Статус: √ проверено
Размер: 2.38 GB
Как cкачать? Как скачать Красавицы и чудовища через торрент | UTorrent

28-11-2019 20:33  


Отключить вcю реклaмy на сайте, в т.ч. и в плеере онлайн просмотра!

    Дорогой пользователь! Огромная просьба, поблагодарите релизера, оцените раздачу и оставьте свои комментарий, если Вы скачали Красавицы и чудовища через торрент бесплатно!!
    Комментировать посты могут только пользователи прошедшие не сложную регистрацию
    Показать сообщения:    


    Красавицы и чудовища через торрент
    Скачать бесплатно Красавицы и чудовища
    Красавицы и чудовища скачать торрент
    Красавицы и чудовища смотреть онлайн
    Cкачать фильм Красавицы и чудовища бесплатно
    Красавицы и чудовища скачать торрент в хорошем качестве
    Красавицы и чудовища смотреть онлайн бесплатно в хорошем качестве
    Вы не можете начинать темы
    Вы не можете отвечать на сообщения
    Вы не можете редактировать свои сообщения
    Вы не можете удалять свои сообщения
    Вы не можете голосовать в опросах
    Вы не можете прикреплять файлы к сообщениям
    Вы можете скачивать файлы
    Красавицы и чудовища / Eden [2012, Детектив, триллер, криминал, HDRip-AVC] MVO [IVI] от MediaBit смотреть онлайн, скачать торрент picoco.icu