Доктор Стрэндж

Лицензия

Добыча

Дубляж

Уэнсдэй

1 сезон

Тор

Дубляж

В эфире

Дубляж

Там, где раки поют

MVO

Властелин колец

1 сезон

Deluxe

pack

Рекомендуем

30

Пиратка

ВАЖНО

ВАЖНО

Ghostwire

Пиратка

jed

RePack

nioh2

RePack

RDR2

RePack

NEED FOR SPEED™ PAYBACK

RePack

скачать торрент

Кинопоиск HD

Острые козырьки 6 сезон

6 сезон

FAR CRY 6

RePack

скачать торрент

Лицензия

скачать торрент

MVO

1

1 сезон

скачать торрент

1 сезон

скачать торрент

Лицензия

  

Город головорезов / Cut Throat City (RZA) [2020, Боевик, триллер, драма, криминал, BD Remux 1080p] Дубляж [iTunes]

Город головорезов через торрент pb.wtf

Размер: 33.01 GB | Добавлен: 1 год 3 мес. назад | Торрент скачан:12 раз
Смотреть онлайн | Скачать   

09-08-2021 21:28 Город головорезов Скачать торрент  

Город головорезов | Cut Throat City
Год выпуска: 2020
Страна: США
Выпущено: Rumble Riot Pictures, Patriot Pictures
Жанр: Боевик, триллер, драма, криминал
Продолжительность: 02:03:22
Перевод: Дублированный | iTunes
Субтитры: Aнглийские

Режиссер: RZA

rating

В ролях: Шамеик Мур, Деметриус Шипп мл., Дензел Уитакер, Киан Джонсон, Кэт Грэхэм, Ти-Ай, Терренс Ховард, Роб Морган, Эйса Гонсалес, Итан Хоук

Описание: 2005 год. Четверо друзей возвращаются в разрушенный и пострадавший от урагана Катрина девятый округ Нового Орлеана. Очень скоро они осознают, что теперь у них могут возникнуть сложности с работой. Поэтому им ничего не остаётся, как обратиться за помощью к местному гангстеру, который нанимает их для совершения ограбления казино прямо в центре города.

Качество: BD Remux 1080p
Формат: MKV

Видео: MPEG-4 AVC, 16.8 Mb/s, 1920x800, 23.976 fps
Аудио#1: 48 kHz, AC3, 5.1, 384 Kbps | iTunes | RUS |
Аудио#2: 48 kHz, DTS-HD MA, 5.1, 2331 Kbps | Оригинал | ENG |
скриншот  скриншот  скриншот  скриншот  

Complete name: Gorod.golovorezov.2020.BDRemux.1080p.ELEKTRI4KA.UNIONGANG.mkv
Format: Matroska
Format version: Version 4
File size: 33.0 GiB
Duration: 2 h 3 min
Overall bit rate mode: Variable
Overall bit rate: 38.3 Mb/s
Movie name: Gorod.golovorezov.2020.BDRemux.1080p.ELEKTRI4KA.UNIONGANG.
Encoded date: UTC 2021-08-09 19:01:11
Writing application: mkvmerge v8.3.0 ('Over the Horizon') 32bit
Writing library: libebml v1.3.1 + libmatroska v1.4.2

Video
ID: 1
Format: AVC
Format/Info: Advanced Video Codec
Format profile: [email protected]
Format settings: CABAC / 4 Ref Frames
Format settings, CABAC: Yes
Format settings, Reference frames: 4 frames
Codec ID: V_MPEG4/ISO/AVC
Duration: 2 h 3 min
Bit rate mode: Variable
Bit rate: 35.6 Mb/s
Maximum bit rate: 37.0 Mb/s
Width: 1 920 pixels
Height: 1 080 pixels
Display aspect ratio: 16:9
Frame rate mode: Constant
Frame rate: 23.976 (24000/1001) FPS
Color space: YUV
Chroma subsampling: 4:2:0
Bit depth: 8 bits
Scan type: Progressive
Bits/(Pixel*Frame): 0.716
Stream size: 30.7 GiB (93%)
Language: English
Default: No
Forced: No

Audio #1
ID: 2
Format: AC-3
Format/Info: Audio Coding 3
Commercial name: Dolby Digital
Codec ID: A_AC3
Duration: 2 h 3 min
Bit rate mode: Constant
Bit rate: 384 kb/s
Channel(s): 6 channels
Channel layout: L R C LFE Ls Rs
Sampling rate: 48.0 kHz
Frame rate: 31.250 FPS (1536 SPF)
Compression mode: Lossy
Stream size: 339 MiB (1%)
Title: Дубляж (iTunes)
Language: Russian
Service kind: Complete Main
Default: Yes
Forced: Yes

Audio #2
ID: 3
Format: DTS XLL
Format/Info: Digital Theater Systems
Commercial name: DTS-HD Master Audio
Codec ID: A_DTS
Duration: 2 h 3 min
Bit rate mode: Variable
Bit rate: 2 331 kb/s
Channel(s): 6 channels
Channel layout: C L R Ls Rs LFE
Sampling rate: 48.0 kHz
Frame rate: 93.750 FPS (512 SPF)
Bit depth: 16 bits
Compression mode: Lossless
Stream size: 2.01 GiB (6%)
Title: Original
Language: English
Default: No
Forced: No

Text #1
ID: 4
Format: UTF-8
Codec ID: S_TEXT/UTF8
Codec ID/Info: UTF-8 Plain Text
Duration: 2 h 1 min
Bit rate: 60 b/s
Count of elements: 1767
Stream size: 53.6 KiB (0%)
Title: Full
Language: English
Default: No
Forced: No

Text #2
ID: 5
Format: UTF-8
Codec ID: S_TEXT/UTF8
Codec ID/Info: UTF-8 Plain Text
Duration: 2 h 1 min
Bit rate: 60 b/s
Count of elements: 1788
Stream size: 53.8 KiB (0%)
Title: SDH
Language: English
Default: No
Forced: No

Menu
00:00:00.000: en:Chapter 1
00:08:01.398: en:Chapter 2
00:14:04.093: en:Chapter 3
00:21:40.799: en:Chapter 4
00:29:35.273: en:Chapter 5
00:40:03.401: en:Chapter 6
00:52:49.792: en:Chapter 7
01:00:52.107: en:Chapter 8
01:08:44.620: en:Chapter 9
01:18:30.080: en:Chapter 10
01:27:48.513: en:Chapter 11
01:35:26.054: en:Chapter 12
01:53:54.327: en:Chapter 13




Скачать Город головорезов через торрент https://i6-imageban-ru.translate.goog/out/2021/08/09/c2c78ef526015f61d5f11f98b2fd8278.png Скачать, смотреть онлайн Город головорезов бесплантно в хорошем качестве Описание: 2005 год. Четверо друзей возвращаются в разрушенный и пострадавший от урагана Катрина девятый округ Нового Орлеана. Очень скоро ... 10 10 2
Торрент: Зарегистрирован [2021-08-09 21:28] · скачан: 12 раз
Статус: √ проверено
Размер: 33.01 GB
Как cкачать? Как скачать Город головорезов через торрент | UTorrent

% Раздел Тема Автор DL S | L
Фильмы 2019-2020 [DVDrip, WEB-DLRip, HDrip] (DUB, MVO) [ 2.41 GB ] Город головорезов / Cut Throat City | iTunes | HDRip-AVC Lithuania Скачать
1 | 0
Фильмы 2019-2020 [DVDrip, WEB-DLRip, HDrip] (DUB, MVO) [ 722 MB ] Город головорезов / Cut Throat City | iTunes" | HDRip, Дубляж "iTunes" coc900 Скачать
1 | 0
Фильмы [HD 720p, 1080p] (Хороший звук DUB, MVO) [ 7.69 GB ] Город головорезов / Cut Throat City | iTunes | 720p bober100 Скачать
1 | 0
Фильмы 2019-2020 [DVDrip, WEB-DLRip, HDrip] (DUB, MVO) [ 1.46 GB ] Город головорезов / Cut Throat City | iTunes | HDRip bober100 Скачать
1 | 0
Фильмы [HD 720p, 1080p] (Хороший звук DUB, MVO) [ 15.35 GB ] Город головорезов / Cut Throat City | iTunes | 1080p bober100 Скачать
1 | 0

28-11-2019 20:33  


Отключить вcю реклaмy на сайте, в т.ч. и в плеере онлайн просмотра!

    Дорогой пользователь! Огромная просьба, поблагодарите релизера, оцените раздачу и оставьте свои комментарий, если Вы скачали Город головорезов через торрент бесплатно!!
    Комментировать посты могут только пользователи прошедшие не сложную регистрацию
    Показать сообщения:    


    Город головорезов через торрент
    Скачать бесплатно Город головорезов
    Город головорезов скачать торрент
    Город головорезов смотреть онлайн
    Cкачать фильм Город головорезов бесплатно
    Город головорезов скачать торрент в хорошем качестве
    Город головорезов смотреть онлайн бесплатно в хорошем качестве
    Вы не можете начинать темы
    Вы не можете отвечать на сообщения
    Вы не можете редактировать свои сообщения
    Вы не можете удалять свои сообщения
    Вы не можете голосовать в опросах
    Вы не можете прикреплять файлы к сообщениям
    Вы можете скачивать файлы
    Город головорезов / Cut Throat City [2020, Боевик, триллер, драма, криминал, BD Remux 1080p] Дубляж [iTunes] смотреть онлайн, скачать торрент picoco.icu