>

5.6

iTunes

6.1

MVO

5.7

MVO

1

7.4

1 сезон

6.8

iTunes

7.2

1 сезон

13

6.7

1 сезон

8.3

RePack

30

Deluxe

pack

9.9

Лицензия

ВАЖНО

ИГРА 18+

pack

7.3

RePack

MK11

7.7

RePack

jed

7.8

RePack

fifa19

8.5

RePack

RDR2

RePack

NEED FOR SPEED™ PAYBACK

4 сезон

9 сезон

Бесстыжие 9 сезон

Все сериалы

все сериалы на PB.wtf

RePack

FAR CRY 5

Anonymous, доброй ночи, мы катастрофически не успеваем собрать деньги на оплату серверов, помогите нам пожалуйста 5,10,15р., для нас важна любая помощь . В качестве благодарности мы отключим Вам всю рекламу на сайте (укажите свой ник в строку Ваше имя)!

×
  
Magnet ссылка

Джуманджи: Новый уровень в 3Д / Jumanji: The Next Level 3D (Джейк Кэздан / Jake Kasdan) [2019, фэнтези, боевик, комедия, приключения, BDRip, 1080p] OverUnder / Вертикальная стереопара (Dub) pb.wtf

Джуманджи: Новый уровень в 3Д через торрент pb.wtf

Размер: 16.93 GB | Добавлен: 1 мес. 13 д. назад | Торрент скачан:7 раз
Смотреть онлайн Джуманджи: Новый уровень в 3Д | Скачать    Ребята, помогите собрать деньги на оплату серверов!!!

11-08-2021 06:53 Джуманджи: Новый уровень в 3Д Скачать торрент  

Джуманджи: Новый уровень / Jumanji: The Next Level

Год выпуска: 2019
Страна: США (Columbia Pictures)
Жанр: фэнтези, боевик, комедия, приключения
Продолжительность: 02:03:09

Перевод: Профессиональный (дублированный)
Русские субтитры: нет
Режиссер: Джейк Кэздан / Jake Kasdan

В ролях: Дуэйн Джонсон, Джек Блэк, Кевин Харт, Карен Гиллан, Ник Джонас, Аквафина, Риз Дэрби, Дэнни ДеВито, Дэнни Гловер, Морган Тернер, Алекс Вулф, Мэдисон Айсмен, Сер’Дариус Блэйн, Колин Хэнкс, Марин Хинкль

Описание: Пытаясь спасти Спенсера, снова попавшего в игру, туда же отправляются и остальные. К их удивлению, правила Джуманджи изменились, и более того - на этот раз в игру затянуло дедулю Спенсера и его престарелого друга Майло. Чтобы выполнить задания и вернуться домой, друзьям предстоит отправиться в путешествие по ранее неизведанным и таинственным уголкам Джуманджи – от засушливой пустыни до заснеженных гор.

Сэмпл: http://sendfile.su/1615599

Качество: BDrip, 1080p
Контейнер: MKV
Формат 3D: OverUnder / Вертикальная стереопара
Порядок ракурсов: левый ракурс первый
Видео кодек: x264
Аудио кодек: AC3
Видео: AVC / High@L5.0 / 23,976 fps / 1920х2160 / 18,0 Мбит/сек
Аудио: Русский / AC3 / 48 KHz / 5.1 ch / 640 Кбит/сек
Аудио 2: Английский / AC3 / 48 KHz / 5.1 ch / 640 Кбит/сек

ВНИМАНИЕ ! На встроенных ТВ-плеерах работать не будет!!!

ТВ Samsung в названии которого есть надпись Ultra HD , и LG Ultra HD 800 серии, LG C6P, Xiaomi Mi TV 2, GRUNDIG VLE 8474 BL, Samsung UE48H6200AK, SUPRA STV-LC42ST960UL00 воспроизводят полные стереопары встроенными плеерами
Железные плееры на которых воспроизводятся полные стереопары:Popcorn C-200, Popcorn a-400, Dune HD Smart D1 , Dune HD DUO , Dune HD Smart H1 , Dune HD Smart B1 , Dune HD Max , Dune HD TV-303D, Dune HD TV-102, Dune HD Base 3D, Philips HMP7001, Aura HD, MECOOL BB2, Zidoo x9s, Lake I Cloud, MiBox 3
Чтобы изображение было на весь экран в плеере выставляем, если рип 1920х1600 - то выставляем 2.35:1 , если 1920х2160 - то выставляем 16:9
Общее
Уникальный идентификатор : 209959507828045178273925979932596154936 (0x9DF4BAF67AD69EA890144738716CB238)
Полное имя : E:\видео\Jumanji The Next Level.Rip by SeRoGa00.mkv
Формат : Matroska
Версия формата : Version 2
Размер файла : 16,9 Гбайт
Продолжительность : 2 ч. 3 м.
Общий поток : 19,7 Мбит/сек
Дата кодирования : UTC 2021-08-11 06:10:09
Программа кодирования : mkvmerge v3.4.0 ('Rapunzel') сборка от May 15 2010 09:38:20
Библиотека кодирования : libebml v0.8.0 + libmatroska v0.9.0

Видео
Идентификатор : 1
Формат : AVC
Формат/Информация : Advanced Video Codec
Профиль формата : High@L5.0
Параметр CABAC формата : Да
Параметр ReFrames формата : 4 кадра
Идентификатор кодека : V_MPEG4/ISO/AVC
Продолжительность : 2 ч. 3 м.
Битрейт : 18,0 Мбит/сек
Ширина : 1920 пикселей
Высота : 2160 пикселей
Соотношение сторон : 0,889
Частота кадров : 23,976 кадра/сек
Цветовое пространство : YUV
Субдискретизация насыщенности : 4:2:0
Битовая глубина : 8 бит
Тип развёртки : Прогрессивная
Бит/(Пиксели*Кадры) : 0.181
Размер потока : 15,5 Гбайт (92%)
Заголовок : Rip by SeRoGa00
Библиотека кодирования : x264 core 157 r2969 d4099dd
Настройки программы : cabac=1 / ref=4 / deblock=1:-3:-3 / analyse=0x3:0x113 / me=umh / subme=10 / psy=1 / psy_rd=1.00:0.15 / mixed_ref=1 / me_range=24 / chroma_me=1 / trellis=2 / 8x8dct=1 / cqm=0 / deadzone=21,11 / fast_pskip=1 / chroma_qp_offset=-3 / threads=12 / lookahead_threads=6 / sliced_threads=0 / nr=0 / decimate=0 / interlaced=0 / bluray_compat=0 / constrained_intra=0 / bframes=10 / b_pyramid=2 / b_adapt=2 / b_bias=0 / direct=3 / weightb=1 / open_gop=0 / weightp=2 / keyint=250 / keyint_min=23 / scenecut=40 / intra_refresh=0 / rc_lookahead=60 / rc=crf / mbtree=1 / crf=16.5 / qcomp=0.60 / qpmin=10 / qpmax=69 / qpstep=4 / vbv_maxrate=40000 / vbv_bufsize=40000 / crf_max=0.0 / nal_hrd=none / filler=0 / ip_ratio=1.40 / aq=1:1.00
Язык : English
Default : Нет
Forced : Нет

Аудио #1
Идентификатор : 2
Формат : AC-3
Формат/Информация : Audio Coding 3
Расширение режима : CM (complete main)
Параметр Endianness формата : Big
Идентификатор кодека : A_AC3
Продолжительность : 2 ч. 3 м.
Вид битрейта : Постоянный
Битрейт : 640 Кбит/сек
Каналы : 6 каналов
Расположение каналов : Front: L C R, Side: L R, LFE
Частота : 48,0 КГц
Битовая глубина : 16 бит
Метод сжатия : С потерями
Размер потока : 564 Мбайт (3%)
Язык : Russian
Default : Да
Forced : Нет

Аудио #2
Идентификатор : 3
Формат : AC-3
Формат/Информация : Audio Coding 3
Расширение режима : CM (complete main)
Параметр Endianness формата : Big
Идентификатор кодека : A_AC3
Продолжительность : 2 ч. 3 м.
Вид битрейта : Постоянный
Битрейт : 640 Кбит/сек
Каналы : 6 каналов
Расположение каналов : Front: L C R, Side: L R, LFE
Частота : 48,0 КГц
Битовая глубина : 16 бит
Метод сжатия : С потерями
Размер потока : 564 Мбайт (3%)
Язык : English
Default : Нет
Forced : Нет

Меню
00:00:00.000 : en:Chapter01
00:09:18.349 : en:Chapter02
00:17:40.476 : en:Chapter03
00:23:10.681 : en:Chapter04
00:31:12.287 : en:Chapter05
00:38:19.130 : en:Chapter06
00:42:39.265 : en:Chapter07
00:48:52.972 : en:Chapter08
00:57:11.428 : en:Chapter09
01:06:03.001 : en:Chapter10
01:13:16.142 : en:Chapter11
01:21:29.093 : en:Chapter12
01:28:33.725 : en:Chapter13
01:32:39.512 : en:Chapter14
01:37:05.403 : en:Chapter15
01:45:00.586 : en:Chapter16
скриншот  

скриншот  

скриншот  

скриншот  

скриншот  

скриншот  

скриншот  

скриншот  
pb.wtf



Скачать Джуманджи: Новый уровень в 3Д через торрент https://d.radikal.ru/d24/2108/36/b7cf0a62d921.png Скачать, смотреть онлайн Джуманджи: Новый уровень в 3Д бесплантно в хорошем качестве Описание: Пытаясь спасти Спенсера, снова попавшего в игру, туда же отправляются и остальные. К их удивлению, правила Джуманджи изменились, ... 10 10 2
Info! Золотая раздача, скачанное не засчитывается.
Торрент: Зарегистрирован [2021-08-11 06:53] · скачан: 7 раз
Статус: √ проверено
Размер: 16.93 GB
Как cкачать? Как скачать Джуманджи: Новый уровень в 3Д через торрент | UTorrent

28-11-2019 20:33  

Отключить всю рекламу на сайте

    Дорогой пользователь! Огромная просьба, поблагодарите релизера, оцените раздачу и оставьте свои комментарий, если Вы скачали Джуманджи: Новый уровень в 3Д через торрент бесплатно!
    Комментировать посты могут только пользователи прошедшие не сложную регистрацию
    Показать сообщения:    

    Джуманджи: Новый уровень в 3Д через торрент
    Скачать бесплатно Джуманджи: Новый уровень в 3Д
    Джуманджи: Новый уровень в 3Д скачать торрент
    Джуманджи: Новый уровень в 3Д смотреть онлайн
    Cкачать фильм Джуманджи: Новый уровень в 3Д бесплатно
    Джуманджи: Новый уровень в 3Д скачать торрент в хорошем качестве
    Джуманджи: Новый уровень в 3Д смотреть онлайн бесплатно в хорошем качестве


    Вы не можете начинать темы
    Вы не можете отвечать на сообщения
    Вы не можете редактировать свои сообщения
    Вы не можете удалять свои сообщения
    Вы не можете голосовать в опросах
    Вы не можете прикреплять файлы к сообщениям
    Вы можете скачивать файлы