Присоединяйтесь к нам в Telegram!, здесь всегда актуальный адрес сайта, оперативная поддержка и многое другое!!

>

5.9

iTunes

7.4

iTunes

9.4

1 сезон

1

7.4

2 сезон

7.2

iTunes

7.3

1 сезон

13

6.1

iTunes

8.3

Пиратка

30

ULTIMATE

pack

9.9

Лицензия

ВАЖНО

ИГРА 18+

pack

7.3

RePack

MK11

7.7

RePack

jed

7.8

RePack

fifa19

8.5

RePack

RDR2

RePack

NEED FOR SPEED™ PAYBACK

5 сезон

9 сезон

Бесстыжие 9 сезон

Все сериалы

все сериалы на PB.wtf

RePack

FAR CRY 5

Anonymous, доброй ночи, мы катастрофически не успеваем собрать деньги на оплату серверов, помогите нам пожалуйста 5,10,15р., для нас важна любая помощь . В качестве благодарности мы отключим Вам всю рекламу на сайте (укажите свой ник в строку Ваше имя)!

×
  
Magnet ссылка

Отряд самоубийц: Миссия навылет / The Suicide Squad (Джеймс Ганн) [2021, Фантастика, комедия, боевик, приключения, фэнтези, WEB-DLRip-AVC] MVO [HDRezka Studio] от MediaBit pb.wtf

Отряд самоубийц: Миссия навылет через торрент pb.wtf

Раздают: 16 [ 2 KB/s ]
Размер: 3.14 GB | Добавлен: 3 мес. 25 д. назад | Торрент скачан:1407 раз
Смотреть онлайн Отряд самоубийц: Миссия навылет | Скачать    Ребята, помогите собрать деньги на оплату серверов!!!

11-08-2021 16:30 Отряд самоубийц: Миссия навылет Скачать торрент  



Информация о фильме:
Название: Отряд самоубийц: Миссия навылет
Оригинальное название: The Suicide Squad
Год выхода: 2021
Жанр: Фантастика, комедия, боевик, приключения, фэнтези
Режиссер: Джеймс Ганн
В ролях: Марго Робби, Идрис Эльба, Джон Сина, Юэль Киннаман, Джай Кортни, Питер Капальди, Давид Дастмалчян, Сильвестр Сталлоне, Майкл Рукер, Виола Дэвис

Описание: Есть на земле одно гнилое место, откуда мечтают свалить даже самые отъявленные злодеи. Тюрьма Белль Рив — для преступников со сверхспособностями. Она же — ад. Она же — база рекрутов для суперсекретного проекта «Отряд самоубийц».



Страна: США
Студия: Atlas Entertainment, DC Comics, DC Entertainment
Продолжительность: 02:12:06
Перевод: Профессиональный (многоголосый, закадровый) - HDRezka Studio - Uncensored



Информация о файле:
Кодек: AVC
Формат: MKV
Качество: WEB-DLRip-AVC
Видео: MPEG-4 AVC, 1024x540, 23.976 fps, 2124 kb/s
Аудио RU: AC3, 6 ch, 48 kHz, 448 kbps
Аудио EN: AC3, 6 ch, 48 kHz, 448 kbps
Аудио UKR: AC3, 6 ch, 48 kHz, 384 kbps
Субтитры: Русские, английские, украинские (форс.)

General
Unique ID : 120729235582039002922521506254659831684 (0x5AD39AE11611CE9D560C196F438CC784)
Complete name : D:\uTorrent\Рипы wolf1245\The.Suicide.Squad.2021.MVO.HDRezka.WEB-DLRip-AVC.[wolf1245.MediaBit].mkv
Format : Matroska
Format version : Version 4
File size : 3.14 GiB
Duration : 2 h 12 min
Overall bit rate : 3 407 kb/s
Movie name : The.Suicide.Squad.2021.MVO.HDRezka.WEB-DLRip-AVC.[wolf1245.MediaBit]
Encoded date : UTC 2021-08-11 15:28:33
Writing application : mkvmerge v60.0.0 ('Are We Copies?') 64-bit
Writing library : libebml v1.4.2 + libmatroska v1.6.4

Video
ID : 1
Format : AVC
Format/Info : Advanced Video Codec
Format profile : High@L4.1
Format settings : CABAC / 14 Ref Frames
Format settings, CABAC : Yes
Format settings, Reference frames : 14 frames
Codec ID : V_MPEG4/ISO/AVC
Duration : 2 h 12 min
Bit rate : 2 124 kb/s
Width : 1 024 pixels
Height : 540 pixels
Display aspect ratio : 1.896
Frame rate mode : Constant
Frame rate : 23.976 (24000/1001) FPS
Color space : YUV
Chroma subsampling : 4:2:0
Bit depth : 8 bits
Scan type : Progressive
Bits/(Pixel*Frame) : 0.160
Stream size : 1.96 GiB (62%)
Title : -=[wolf1245.MediaBit]=-
Writing library : x264 core 157 r2958 57baac4
Encoding settings : cabac=1 / ref=14 / deblock=1:-3:-2 / analyse=0x3:0x133 / me=umh / subme=11 / psy=1 / psy_rd=1.02:0.05 / mixed_ref=1 / me_range=48 / chroma_me=1 / trellis=2 / 8x8dct=1 / cqm=0 / deadzone=21,11 / fast_pskip=1 / chroma_qp_offset=-3 / threads=10 / lookahead_threads=2 / sliced_threads=0 / nr=0 / decimate=1 / interlaced=0 / bluray_compat=0 / constrained_intra=0 / bframes=12 / b_pyramid=2 / b_adapt=2 / b_bias=0 / direct=3 / weightb=1 / open_gop=0 / weightp=2 / keyint=240 / keyint_min=24 / scenecut=40 / intra_refresh=0 / rc_lookahead=60 / rc=2pass / mbtree=1 / bitrate=2124 / ratetol=1.0 / qcomp=0.60 / qpmin=0 / qpmax=69 / qpstep=4 / cplxblur=20.0 / qblur=0.5 / vbv_maxrate=50000 / vbv_bufsize=62500 / nal_hrd=none / filler=0 / ip_ratio=1.40 / aq=3:0.80
Language : English
Default : Yes
Forced : No
Color range : Limited
Color primaries : BT.709
Transfer characteristics : BT.709
Matrix coefficients : BT.709

Audio #1
ID : 2
Format : AC-3
Format/Info : Audio Coding 3
Commercial name : Dolby Digital
Codec ID : A_AC3
Duration : 2 h 12 min
Bit rate mode : Constant
Bit rate : 448 kb/s
Channel(s) : 6 channels
Channel layout : L R C LFE Ls Rs
Sampling rate : 48.0 kHz
Frame rate : 31.250 FPS (1536 SPF)
Compression mode : Lossy
Stream size : 423 MiB (13%)
Title : MVO [HDRezka Studio] - Uncensored
Language : Russian
Service kind : Complete Main
Default : Yes
Forced : No

Audio #2
ID : 3
Format : AC-3
Format/Info : Audio Coding 3
Commercial name : Dolby Digital
Codec ID : A_AC3
Duration : 2 h 12 min
Bit rate mode : Constant
Bit rate : 384 kb/s
Channel(s) : 6 channels
Channel layout : L R C LFE Ls Rs
Sampling rate : 48.0 kHz
Frame rate : 31.250 FPS (1536 SPF)
Compression mode : Lossy
Stream size : 363 MiB (11%)
Title : MVO [HDRezka Studio]
Language : Ukrainian
Service kind : Complete Main
Default : No
Forced : No

Audio #3
ID : 4
Format : AC-3
Format/Info : Audio Coding 3
Commercial name : Dolby Digital
Codec ID : A_AC3
Duration : 2 h 12 min
Bit rate mode : Constant
Bit rate : 448 kb/s
Channel(s) : 6 channels
Channel layout : L R C LFE Ls Rs
Sampling rate : 48.0 kHz
Frame rate : 31.250 FPS (1536 SPF)
Compression mode : Lossy
Stream size : 423 MiB (13%)
Title : Original
Language : English
Service kind : Complete Main
Default : No
Forced : No

Text #1
ID : 5
Format : UTF-8
Codec ID : S_TEXT/UTF8
Codec ID/Info : UTF-8 Plain Text
Duration : 1 h 57 min
Bit rate : 8 b/s
Count of elements : 191
Stream size : 7.09 KiB (0%)
Title : Forced [HDRezka Studio]
Language : Russian
Default : Yes
Forced : Yes

Text #2
ID : 6
Format : UTF-8
Codec ID : S_TEXT/UTF8
Codec ID/Info : UTF-8 Plain Text
Duration : 2 h 11 min
Bit rate : 66 b/s
Count of elements : 1374
Stream size : 63.7 KiB (0%)
Title : Full
Language : Russian
Default : No
Forced : No

Text #3
ID : 7
Format : UTF-8
Codec ID : S_TEXT/UTF8
Codec ID/Info : UTF-8 Plain Text
Duration : 1 h 45 min
Bit rate : 5 b/s
Count of elements : 94
Stream size : 4.14 KiB (0%)
Title : Forced [HDRezka Studio]
Language : Ukrainian
Default : No
Forced : No

Text #4
ID : 8
Format : UTF-8
Codec ID : S_TEXT/UTF8
Codec ID/Info : UTF-8 Plain Text
Duration : 2 h 11 min
Bit rate : 42 b/s
Count of elements : 1335
Stream size : 40.6 KiB (0%)
Title : English
Language : English
Default : No
Forced : No

Text #5
ID : 9
Format : UTF-8
Codec ID : S_TEXT/UTF8
Codec ID/Info : UTF-8 Plain Text
Duration : 2 h 11 min
Bit rate : 61 b/s
Count of elements : 2051
Stream size : 59.5 KiB (0%)
Title : English CC
Language : English
Default : No
Forced : No
Релиз от: &

Автор релиза:
pb.wtf



Скачать Отряд самоубийц: Миссия навылет через торрент https://i115.fastpic.org/big/2021/0811/b2/d6865cfda0c486f1d8c311a9f74ba6b2.jpg Скачать, смотреть онлайн Отряд самоубийц: Миссия навылет бесплантно в хорошем качестве Описание: Есть на земле одно гнилое место, откуда мечтают свалить даже самые отъявленные злодеи. Тюрьма Белль Рив — для преступников со ... 9.5 10 31
Info! Золотая раздача, скачанное не засчитывается.
Торрент: Зарегистрирован [2021-08-11 16:30] · скачан: 1 407 раз
Статус: √ проверено
Размер: 3.14 GB
Как cкачать? Как скачать Отряд самоубийц: Миссия навылет через торрент | UTorrent

28-11-2019 20:33  

Отключить всю рекламу на сайте

15-08-2021 13:41 Отряд самоубийц: Миссия навылет Скачать торрент  

что за трэш. расчлененка и все... хрень какая тоpb.wtf



22-08-2021 14:15 Отряд самоубийц: Миссия навылет Скачать торрент  

Офигенный фильмак. Это вам не марвел тетека=)pb.wtf



    Дорогой пользователь! Огромная просьба, поблагодарите релизера, оцените раздачу и оставьте свои комментарий, если Вы скачали Отряд самоубийц: Миссия навылет через торрент бесплатно!
    Комментировать посты могут только пользователи прошедшие не сложную регистрацию
    Показать сообщения:    

    Отряд самоубийц: Миссия навылет через торрент
    Скачать бесплатно Отряд самоубийц: Миссия навылет
    Отряд самоубийц: Миссия навылет скачать торрент
    Отряд самоубийц: Миссия навылет смотреть онлайн
    Cкачать фильм Отряд самоубийц: Миссия навылет бесплатно
    Отряд самоубийц: Миссия навылет скачать торрент в хорошем качестве
    Отряд самоубийц: Миссия навылет смотреть онлайн бесплатно в хорошем качестве


    Вы не можете начинать темы
    Вы не можете отвечать на сообщения
    Вы не можете редактировать свои сообщения
    Вы не можете удалять свои сообщения
    Вы не можете голосовать в опросах
    Вы не можете прикреплять файлы к сообщениям
    Вы можете скачивать файлы