Присоединяйтесь к нам в Telegram!, здесь всегда актуальный адрес сайта, оперативная поддержка и многое другое!!

>

5.9

iTunes

7.4

iTunes

9.4

1 сезон

1

7.4

2 сезон

7.2

iTunes

7.3

1 сезон

13

6.1

iTunes

8.3

GOG

30

ULTIMATE

pack

9.9

Лицензия

ВАЖНО

ИГРА 18+

pack

7.3

RePack

MK11

7.7

RePack

jed

7.8

RePack

fifa19

8.5

RePack

RDR2

RePack

NEED FOR SPEED™ PAYBACK

5 сезон

9 сезон

Бесстыжие 9 сезон

Все сериалы

все сериалы на PB.wtf

RePack

FAR CRY 5

Anonymous, добрый день, мы катастрофически не успеваем собрать деньги на оплату серверов, помогите нам пожалуйста 5,10,15р., для нас важна любая помощь . В качестве благодарности мы отключим Вам всю рекламу на сайте (укажите свой ник в строку Ваше имя)!

×
  
Magnet ссылка

Калейдоскоп поцелуев 3 / The Kissing Booth 3 (Винс Марселло) [2021, мелодрама, комедия, WEB-DLRip-AVC] DUB [Пифагор] от MediaBit pb.wtf

Калейдоскоп поцелуев 3 через торрент pb.wtf

Размер: 2.64 GB | Добавлен: 3 мес. 21 д. назад | Торрент скачан:25 раз
Смотреть онлайн Калейдоскоп поцелуев 3 | Скачать    Ребята, помогите собрать деньги на оплату серверов!!!

11-08-2021 19:00 Калейдоскоп поцелуев 3 Скачать торрент  


Калейдоскоп поцелуев 3 / The Kissing Booth 3
Информация о фильме:
Название: Калейдоскоп поцелуев 3
Оригинальное название: The Kissing Booth 3
Год выхода: 2021
Жанр: мелодрама, комедия
Режиссер: Винс Марселло

В ролях: Джои Кинг, Джоэл Кортни, Джейкоб Элорди, Тейлор Захар Перес, Мэйзи Ричардсон-Селлерс, Молли Рингуолд, Меган Янг
Описание: В последнее лето перед колледжем Эль полна решимости успеть как можно больше. Но, помимо списка желаний, ей предстоит разобраться в отношениях с Ноем и Ли.



Страна: Великобритания, США
Продолжительность: 01:53:42
Перевод: Дублированный - Пифагор



Информация о файле:
Кодек: AVC
Формат: MKV
Качество: WEB-DLRip-AVC
Видео: MPEG-4 AVC, 1024x466, 24.000, 1974 kbps
Аудио RU: AC3, 6 ch, 48 kHz, 448 kbps
Аудио EN: AC3, 6 ch, 48 kHz, 448 kbps
Аудио UKR: AC3, 6 ch, 48 kHz, 448 kbps
Субтитры: Русские (Forced, Full), украинские (Forced, Full), английские (SDH), немецкие, испанские, французкие, итальянские, португальские, румынские

x264 info: frame I:2155 Avg QP:14.06 size: 83210
x264 info: frame P:37381 Avg QP:18.33 size: 23094
x264 info: frame B:124209 Avg QP:21.36 size: 4914
General
Unique ID : 106248240203271399147667963533312565987 (0x4FEEAAAF1E4741F147238F9FE6CEA2E3)
Complete name : D:uTorrentРипы wolf1245The.Kissing.Booth3.2021.DUB.Pifagor.WEB-DLRip-AVC.[wolf1245.MediaBit].mkv
Format : Matroska
Format version : Version 4
File size : 2.64 GiB
Duration : 1 h 53 min
Overall bit rate : 3 318 kb/s
Movie name : The.Kissing.Booth3.2021.DUB.Pifagor.WEB-DLRip-AVC.[wolf1245.MediaBit]
Encoded date : UTC 2021-08-11 18:43:56
Writing application : mkvmerge v60.0.0 ('Are We Copies?') 64-bit
Writing library : libebml v1.4.2 + libmatroska v1.6.4
Video
ID : 1
Format : AVC
Format/Info : Advanced Video Codec
Format profile : High@L4.1
Format settings : CABAC / 12 Ref Frames
Format settings, CABAC : Yes
Format settings, Reference frames : 12 frames
Codec ID : V_MPEG4/ISO/AVC
Duration : 1 h 53 min
Bit rate : 1 974 kb/s
Width : 1 024 pixels
Height : 466 pixels
Display aspect ratio : 2.2:1
Frame rate mode : Constant
Frame rate : 24.000 FPS
Color space : YUV
Chroma subsampling : 4:2:0
Bit depth : 8 bits
Scan type : Progressive
Bits/(Pixel*Frame) : 0.172
Stream size : 1.57 GiB (59%)
Title : -=[wolf1245.MediaBit]=-
Writing library : x264 core 157 r2958 57baac4
Encoding settings : cabac=1 / ref=12 / deblock=1:-3:-2 / analyse=0x3:0x133 / me=umh / subme=10 / psy=1 / psy_rd=0.97:0.08 / mixed_ref=1 / me_range=32 / chroma_me=1 / trellis=2 / 8x8dct=1 / cqm=0 / deadzone=21,11 / fast_pskip=1 / chroma_qp_offset=-3 / threads=10 / lookahead_threads=2 / sliced_threads=0 / nr=0 / decimate=1 / interlaced=0 / bluray_compat=0 / constrained_intra=0 / bframes=12 / b_pyramid=2 / b_adapt=2 / b_bias=0 / direct=3 / weightb=1 / open_gop=0 / weightp=2 / keyint=240 / keyint_min=24 / scenecut=40 / intra_refresh=0 / rc_lookahead=60 / rc=2pass / mbtree=1 / bitrate=1974 / ratetol=1.0 / qcomp=0.60 / qpmin=0 / qpmax=69 / qpstep=4 / cplxblur=20.0 / qblur=0.5 / vbv_maxrate=50000 / vbv_bufsize=62500 / nal_hrd=none / filler=0 / ip_ratio=1.40 / aq=1:0.80
Language : English
Default : Yes
Forced : No
Audio #1
ID : 2
Format : AC-3
Format/Info : Audio Coding 3
Commercial name : Dolby Digital
Codec ID : A_AC3
Duration : 1 h 53 min
Bit rate mode : Constant
Bit rate : 448 kb/s
Channel(s) : 6 channels
Channel layout : L R C LFE Ls Rs
Sampling rate : 48.0 kHz
Frame rate : 31.250 FPS (1536 SPF)
Compression mode : Lossy
Stream size : 364 MiB (14%)
Title : DUB | Пифагор
Language : Russian
Service kind : Complete Main
Default : Yes
Forced : No
Audio #2
ID : 3
Format : AC-3
Format/Info : Audio Coding 3
Commercial name : Dolby Digital
Codec ID : A_AC3
Duration : 1 h 53 min
Bit rate mode : Constant
Bit rate : 448 kb/s
Channel(s) : 6 channels
Channel layout : L R C LFE Ls Rs
Sampling rate : 48.0 kHz
Frame rate : 31.250 FPS (1536 SPF)
Compression mode : Lossy
Stream size : 364 MiB (14%)
Title : | Пифагор
Language : English
Service kind : Complete Main
Default : No
Forced : No
Audio #3
ID : 4
Format : AC-3
Format/Info : Audio Coding 3
Commercial name : Dolby Digital
Codec ID : A_AC3
Duration : 1 h 53 min
Bit rate mode : Constant
Bit rate : 448 kb/s
Channel(s) : 6 channels
Channel layout : L R C LFE Ls Rs
Sampling rate : 48.0 kHz
Frame rate : 31.250 FPS (1536 SPF)
Compression mode : Lossy
Stream size : 364 MiB (14%)
Title : | Пифагор
Language : Ukrainian
Service kind : Complete Main
Default : No
Forced : No
Text #1
ID : 5
Format : UTF-8
Codec ID : S_TEXT/UTF8
Codec ID/Info : UTF-8 Plain Text
Duration : 1 h 51 min
Bit rate : 2 b/s
Count of elements : 55
Stream size : 2.01 KiB (0%)
Title : Forced
Language : Russian
Default : Yes
Forced : No
Text #2
ID : 6
Format : UTF-8
Codec ID : S_TEXT/UTF8
Codec ID/Info : UTF-8 Plain Text
Duration : 1 h 51 min
Bit rate : 93 b/s
Count of elements : 1681
Stream size : 75.9 KiB (0%)
Language : Russian
Default : No
Forced : No
Text #3
ID : 7
Format : UTF-8
Codec ID : S_TEXT/UTF8
Codec ID/Info : UTF-8 Plain Text
Duration : 1 h 51 min
Bit rate : 2 b/s
Count of elements : 55
Stream size : 2.19 KiB (0%)
Title : Forced
Language : Ukrainian
Default : No
Forced : No
Text #4
ID : 8
Format : UTF-8
Codec ID : S_TEXT/UTF8
Codec ID/Info : UTF-8 Plain Text
Duration : 1 h 51 min
Bit rate : 94 b/s
Count of elements : 1689
Stream size : 76.8 KiB (0%)
Language : Ukrainian
Default : No
Forced : No
Text #5
ID : 9
Format : UTF-8
Codec ID : S_TEXT/UTF8
Codec ID/Info : UTF-8 Plain Text
Duration : 1 h 50 min
Bit rate : 89 b/s
Count of elements : 2068
Stream size : 72.2 KiB (0%)
Title : SDH
Language : English
Default : No
Forced : No
Text #6
ID : 10
Format : UTF-8
Codec ID : S_TEXT/UTF8
Codec ID/Info : UTF-8 Plain Text
Duration : 1 h 51 min
Bit rate : 64 b/s
Count of elements : 1622
Stream size : 52.2 KiB (0%)
Language : German
Default : No
Forced : No
Text #7
ID : 11
Format : UTF-8
Codec ID : S_TEXT/UTF8
Codec ID/Info : UTF-8 Plain Text
Duration : 1 h 51 min
Bit rate : 62 b/s
Count of elements : 1582
Stream size : 50.7 KiB (0%)
Language : Spanish
Default : No
Forced : No
Text #8
ID : 12
Format : UTF-8
Codec ID : S_TEXT/UTF8
Codec ID/Info : UTF-8 Plain Text
Duration : 1 h 51 min
Bit rate : 53 b/s
Count of elements : 1464
Stream size : 43.6 KiB (0%)
Language : French
Default : No
Forced : No
Text #9
ID : 13
Format : UTF-8
Codec ID : S_TEXT/UTF8
Codec ID/Info : UTF-8 Plain Text
Duration : 1 h 51 min
Bit rate : 62 b/s
Count of elements : 1610
Stream size : 50.6 KiB (0%)
Language : Italian
Default : No
Forced : No
Text #10
ID : 14
Format : UTF-8
Codec ID : S_TEXT/UTF8
Codec ID/Info : UTF-8 Plain Text
Duration : 1 h 51 min
Bit rate : 60 b/s
Count of elements : 1655
Stream size : 49.5 KiB (0%)
Title : Brazilian
Language : Portuguese
Default : No
Forced : No
Text #11
ID : 15
Format : UTF-8
Codec ID : S_TEXT/UTF8
Codec ID/Info : UTF-8 Plain Text
Duration : 1 h 51 min
Bit rate : 60 b/s
Count of elements : 1670
Stream size : 49.0 KiB (0%)
Language : Romanian
Default : No
Forced : No
Релиз от: &
Автор релиза:
pb.wtf



Скачать Калейдоскоп поцелуев 3 через торрент https://i115.fastpic.org/big/2021/0811/33/ad48a5f8d00f70e84f37e1b78c7a5033.jpg Скачать, смотреть онлайн Калейдоскоп поцелуев 3 бесплантно в хорошем качестве Описание: В последнее лето перед колледжем Эль полна решимости успеть как можно больше. Но, помимо списка желаний, ей предстоит ... 10 10 1
Торрент: Зарегистрирован [2021-08-11 19:00] · скачан: 25 раз
Статус: √ проверено
Размер: 2.64 GB
Как cкачать? Как скачать Калейдоскоп поцелуев 3 через торрент | UTorrent

28-11-2019 20:33  

Отключить всю рекламу на сайте

    Дорогой пользователь! Огромная просьба, поблагодарите релизера, оцените раздачу и оставьте свои комментарий, если Вы скачали Калейдоскоп поцелуев 3 через торрент бесплатно!
    Комментировать посты могут только пользователи прошедшие не сложную регистрацию
    Показать сообщения:    

    Калейдоскоп поцелуев 3 через торрент
    Скачать бесплатно Калейдоскоп поцелуев 3
    Калейдоскоп поцелуев 3 скачать торрент
    Калейдоскоп поцелуев 3 смотреть онлайн
    Cкачать фильм Калейдоскоп поцелуев 3 бесплатно
    Калейдоскоп поцелуев 3 скачать торрент в хорошем качестве
    Калейдоскоп поцелуев 3 смотреть онлайн бесплатно в хорошем качестве


    Вы не можете начинать темы
    Вы не можете отвечать на сообщения
    Вы не можете редактировать свои сообщения
    Вы не можете удалять свои сообщения
    Вы не можете голосовать в опросах
    Вы не можете прикреплять файлы к сообщениям
    Вы можете скачивать файлы