Присоединяйтесь к нам в Telegram!, здесь всегда актуальный адрес сайта, оперативная поддержка и многое другое!!

>

5.9

iTunes

7.4

iTunes

9.4

1 сезон

1

7.4

2 сезон

7.2

iTunes

7.3

1 сезон

13

6.1

iTunes

8.3

GOG

30

ULTIMATE

pack

9.9

Лицензия

ВАЖНО

ИГРА 18+

pack

7.3

RePack

MK11

7.7

RePack

jed

7.8

RePack

fifa19

8.5

RePack

RDR2

RePack

NEED FOR SPEED™ PAYBACK

5 сезон

9 сезон

Бесстыжие 9 сезон

Все сериалы

все сериалы на PB.wtf

RePack

FAR CRY 5

Anonymous, доброй ночи, мы катастрофически не успеваем собрать деньги на оплату серверов, помогите нам пожалуйста 5,10,15р., для нас важна любая помощь . В качестве благодарности мы отключим Вам всю рекламу на сайте (укажите свой ник в строку Ваше имя)!

×
  
Magnet ссылка

Кукла / Juega Conmigo / Come Play with Me (Адриан Гарсиа Больяно) [2021, Ужасы, WEB-DLRip-AVC] DUB [iTunes] от MediaBit pb.wtf

Кукла через торрент pb.wtf

Размер: 1.45 GB | Добавлен: 3 мес. 18 д. назад | Торрент скачан:55 раз
Смотреть онлайн Кукла | Скачать    Ребята, помогите собрать деньги на оплату серверов!!!

12-08-2021 16:38 Кукла Скачать торрент  


Кукла / Juega Conmigo / Come Play with Me
Информация о фильме:
Название: Кукла
Оригинальное название: Juega Conmigo / Come Play with Me
Год выхода: 2021
Жанр: Ужасы
Режиссер: Адриан Гарсиа Больяно

В ролях: Лиз Дьеппа, Эмилио Бельтран, Эрик Израэль Консуэло, Росио Гарсия, Октавио Инохоса, Пабло Гиса Кёстингер, Алехандра Родригез

Описание: София, начинающая няня, только что приступившая к своим обязанностям, остается одна с тремя детьми, пока родители в отъезде. Девушка сталкивается с паранормальными явлениями, которые активируются в доме с наступлением темноты. Дети тоже знают о происходящем, и рассказывают няне о демонической сущности, которая приходит к ним каждую ночь, чтобы поиграть. София пытается спасти детей и себя от разыгравшегося демона.
«Кукла» — мексиканский фильм ужасов о демоне, который очень любит играть в детские игры.



Страна: Мексика
Студия: Lemon Films
Продолжительность: 01:19:53
Перевод: Дублированный - iTunes



Информация о файле:
Кодек: AVC
Формат: MKV
Качество: WEB-DLRip-AVC
Видео: MPEG-4 AVC, 1024x428, 23.976, 2216 kbps
Аудио RU: AC3, 6 ch, 48 kHz, 384 kbps
Навигация по главам: Да

General
Unique ID : 76320174476059611165942563684573796958 (0x396ABB1EC7ECEFE8FF3A903593885A5E)
Complete name : D:uTorrentРипы wolf1245Kukla.2021.DUB.WEB-DLRip-AVC.[wolf1245.MediaBit].mkv
Format : Matroska
Format version : Version 4
File size : 1.45 GiB
Duration : 1 h 19 min
Overall bit rate : 2 601 kb/s
Movie name : Kukla.2021.DUB.WEB-DLRip-AVC.[wolf1245.MediaBit]
Encoded date : UTC 2021-08-12 16:24:39
Writing application : mkvmerge v60.0.0 ('Are We Copies?') 64-bit
Writing library : libebml v1.4.2 + libmatroska v1.6.4
Video
ID : 1
Format : AVC
Format/Info : Advanced Video Codec
Format profile : High@L4.1
Format settings : CABAC / 12 Ref Frames
Format settings, CABAC : Yes
Format settings, Reference frames : 12 frames
Codec ID : V_MPEG4/ISO/AVC
Duration : 1 h 19 min
Bit rate : 2 216 kb/s
Width : 1 024 pixels
Height : 428 pixels
Display aspect ratio : 2.40:1
Frame rate mode : Constant
Frame rate : 24.000 FPS
Color space : YUV
Chroma subsampling : 4:2:0
Bit depth : 8 bits
Scan type : Progressive
Bits/(Pixel*Frame) : 0.211
Stream size : 1.24 GiB (85%)
Title : -=[wolf1245.MediaBit]=-
Writing library : x264 core 157 r2958 57baac4
Encoding settings : cabac=1 / ref=12 / deblock=1:-3:-2 / analyse=0x3:0x133 / me=umh / subme=10 / psy=1 / psy_rd=0.97:0.04 / mixed_ref=1 / me_range=32 / chroma_me=1 / trellis=2 / 8x8dct=1 / cqm=0 / deadzone=21,11 / fast_pskip=1 / chroma_qp_offset=-3 / threads=10 / lookahead_threads=2 / sliced_threads=0 / nr=0 / decimate=1 / interlaced=0 / bluray_compat=0 / constrained_intra=0 / bframes=12 / b_pyramid=2 / b_adapt=2 / b_bias=0 / direct=3 / weightb=1 / open_gop=0 / weightp=2 / keyint=240 / keyint_min=24 / scenecut=40 / intra_refresh=0 / rc_lookahead=60 / rc=2pass / mbtree=1 / bitrate=2216 / ratetol=1.0 / qcomp=0.60 / qpmin=0 / qpmax=69 / qpstep=4 / cplxblur=20.0 / qblur=0.5 / vbv_maxrate=50000 / vbv_bufsize=62500 / nal_hrd=none / filler=0 / ip_ratio=1.40 / aq=1:0.80
Language : English
Default : Yes
Forced : No
Color range : Limited
Color primaries : BT.709
Transfer characteristics : BT.709
Matrix coefficients : BT.709
Audio
ID : 2
Format : AC-3
Format/Info : Audio Coding 3
Commercial name : Dolby Digital
Codec ID : A_AC3
Duration : 1 h 19 min
Bit rate mode : Constant
Bit rate : 384 kb/s
Channel(s) : 6 channels
Channel layout : L R C LFE Ls Rs
Sampling rate : 48.0 kHz
Frame rate : 31.250 FPS (1536 SPF)
Compression mode : Lossy
Stream size : 219 MiB (15%)
Title : DUB | iTunes
Language : Russian
Service kind : Complete Main
Default : Yes
Forced : No
Menu
00:00:00.000 : :Глава 1
00:08:30.625 : :Глава 2
00:17:17.708 : :Глава 3
00:23:19.999 : :Глава 4
00:29:21.832 : :Глава 5
00:35:57.373 : :Глава 6
00:42:31.914 : :Глава 7
00:48:49.664 : :Глава 8
00:55:00.830 : :Глава 9
01:00:47.288 : :Глава 10
01:06:33.954 : :Глава 11
Релиз от: &
Автор релиза:
pb.wtf



Скачать Кукла через торрент https://i115.fastpic.org/big/2021/0812/75/3e87c0f640137aba3b6907814bf41975.jpg Скачать, смотреть онлайн Кукла бесплантно в хорошем качестве Описание: София, начинающая няня, только что приступившая к своим обязанностям, остается одна с тремя детьми, пока родители в отъезде. ... 10 10 1
Торрент: Зарегистрирован [2021-08-12 16:38] · скачан: 55 раз
Статус: √ проверено
Размер: 1.45 GB
Как cкачать? Как скачать Кукла через торрент | UTorrent

28-11-2019 20:33  

Отключить всю рекламу на сайте

    Дорогой пользователь! Огромная просьба, поблагодарите релизера, оцените раздачу и оставьте свои комментарий, если Вы скачали Кукла через торрент бесплатно!
    Комментировать посты могут только пользователи прошедшие не сложную регистрацию
    Показать сообщения:    

    Кукла через торрент
    Скачать бесплатно Кукла
    Кукла скачать торрент
    Кукла смотреть онлайн
    Cкачать фильм Кукла бесплатно
    Кукла скачать торрент в хорошем качестве
    Кукла смотреть онлайн бесплатно в хорошем качестве


    Вы не можете начинать темы
    Вы не можете отвечать на сообщения
    Вы не можете редактировать свои сообщения
    Вы не можете удалять свои сообщения
    Вы не можете голосовать в опросах
    Вы не можете прикреплять файлы к сообщениям
    Вы можете скачивать файлы