>

5.6

iTunes

6.1

MVO

5.7

MVO

1

7.4

1 сезон

6.8

iTunes

7.2

1 сезон

13

6.7

1 сезон

8.3

RePack

30

Deluxe

pack

9.9

Лицензия

ВАЖНО

ИГРА 18+

pack

7.3

RePack

MK11

7.7

RePack

jed

7.8

RePack

fifa19

8.5

RePack

RDR2

RePack

NEED FOR SPEED™ PAYBACK

4 сезон

9 сезон

Бесстыжие 9 сезон

Все сериалы

все сериалы на PB.wtf

RePack

FAR CRY 5

Anonymous, доброй ночи, мы катастрофически не успеваем собрать деньги на оплату серверов, помогите нам пожалуйста 5,10,15р., для нас важна любая помощь . В качестве благодарности мы отключим Вам всю рекламу на сайте (укажите свой ник в строку Ваше имя)!

×
  
Magnet ссылка

Холодное сердце 2 / Frozen II (Крис Бак, Дженнифер Ли) [2019 г., мультфильм, мюзикл, фэнтези, комедия, приключения, семейный, BDRip 720p / 60 FPS, Дубляж iTunes] от R.G. HD-Films pb.wtf

Холодное сердце 2 через торрент pb.wtf

Раздают: 3 [ 0 KB/s ]
Размер: 3.25 GB | Добавлен: 1 мес. 11 д. назад | Торрент скачан:53 раза
Смотреть онлайн Холодное сердце 2 | Скачать    Ребята, помогите собрать деньги на оплату серверов!!!

13-08-2021 15:20 Холодное сердце 2 Скачать торрент  

Холодное сердце 2 / Frozen II
Год выпуска: 2019
Страна: США
Жанр: мультфильм, мюзикл, фэнтези, комедия, приключения, семейный
Продолжительность: 01:43:07
Перевод: Дубляж iTunes

Режиссер: Крис Бак, Дженнифер Ли

Бюджет: $150 000 000
Премьера в мире: 7 ноября 2019

rating

В ролях: Идина Мензел, Кристен Белл, Джонатан Грофф, Джош Гэд, Стерлинг К. Браун, Эван Рэйчел Вуд, Альфред Молина, Марта Плимптон, Джейсон Риттер, Рэйчел Мэттьюз

Описание: Анна, Эльза, Кристоф, его верный олень Свен и никогда не унывающий снеговик Олаф должны будут покинуть уютное королевство Эренделл и отправиться ещё дальше на север, в путешествие, которое приведет их к истокам древних легенд и поможет раскрыть тайны, касающиеся прошлого их родной страны.

Качество: BDRip 720p / 60 FPS
Формат: MKV
Видео кодек: H.264
Аудио кодек: AC3
Видео: x264, 1280 x 536 ( 2,40:1 ), 4127 kbps, 60,000 fps, ( 0.100 bpp)
Аудио#1: Русский, AC-3, 48.0 KHz, 6 ch, 384 Kbps Dub ( iTunes )
Релиз от: Автор рипа: slaventi-69
x264 [info]: frame I:1291 Avg QP:14.82 size: 88362
x264 [info]: frame P:92800 Avg QP:16.43 size: 16698
x264 [info]: frame B:277177 Avg QP:19.77 size: 5514
x264 [info]: consecutive B-frames: 3.1% 2.3% 10.8% 20.2% 56.0% 7.7%


Общее
Уникальный идентификатор : 150653816005713769613391716402731816892 (0x7156DE9AB55170E6CD9E2D23AF9A17BC)
Полное имя : F:\60 FPS\Frozen.II.(2019).BDRip.720p.(60 Fps).mkv
Формат : Matroska
Версия формата : Version 4
Размер файла : 3,25 Гбайт
Продолжительность : 1 ч. 43 м.
Общий поток : 4515 Кбит/сек
Название фильма : Холодное сердце 2 / Frozen II (2019) BDRip 720p (60 Fps)
Дата кодирования : UTC 2021-08-13 14:54:52
Программа кодирования : mkvmerge v56.1.0 ('My Friend') 32-bit
Библиотека кодирования : libebml v1.4.2 + libmatroska v1.6.4

Видео
Идентификатор : 1
Формат : AVC
Формат/Информация : Advanced Video Codec
Профиль формата : High@L4.1
Настройки формата : CABAC / 9 Ref Frames
Параметр CABAC формата : Да
Параметр RefFrames формата : 9 кадров
Идентификатор кодека : V_MPEG4/ISO/AVC
Продолжительность : 1 ч. 43 м.
Битрейт : 4127 Кбит/сек
Ширина : 1280 пикселей
Высота : 536 пикселей
Соотношение сторон : 2,40:1
Режим частоты кадров : Постоянный
Частота кадров : 60,000 кадров/сек
Цветовое пространство : YUV
Субдискретизация насыщенности : 4:2:0
Битовая глубина : 8 бит
Тип развёртки : Прогрессивная
Бит/(Пиксели*Кадры) : 0.100
Размер потока : 2,97 Гбайт (91%)
Заголовок : slaventi-69 ( R.G. HD-Films | 60 fps )
Библиотека кодирования : x264 core 130 r2273 b3065e6
Настройки программы : cabac=1 / ref=10 / deblock=1:-1:-1 / analyse=0x3:0x133 / me=umh / subme=9 / psy=1 / psy_rd=1.00:0.00 / mixed_ref=1 / me_range=32 / chroma_me=1 / trellis=2 / 8x8dct=1 / cqm=0 / deadzone=21,11 / fast_pskip=0 / chroma_qp_offset=-2 / threads=10 / lookahead_threads=4 / sliced_threads=0 / nr=0 / decimate=1 / interlaced=0 / bluray_compat=0 / constrained_intra=0 / bframes=5 / b_pyramid=1 / b_adapt=2 / b_bias=0 / direct=2 / weightb=1 / open_gop=0 / weightp=2 / keyint=600 / keyint_min=23 / scenecut=40 / intra_refresh=0 / rc=crf / mbtree=0 / crf=17.0 / qcomp=0.60 / qpmin=0 / qpmax=69 / qpstep=4 / ip_ratio=1.40 / pb_ratio=1.30 / aq=1:1.00
Язык : English
Default : Да
Forced : Нет

Аудио
Идентификатор : 2
Формат : AC-3
Формат/Информация : Audio Coding 3
Коммерческое название : Dolby Digital
Идентификатор кодека : A_AC3
Продолжительность : 1 ч. 43 м.
Вид битрейта : Постоянный
Битрейт : 384 Кбит/сек
Каналы : 6 каналов
Channel layout : L R C LFE Ls Rs
Частота : 48,0 КГц
Частота кадров : 31,250 кадров/сек (1536 SPF)
Битовая глубина : 16 бит
Метод сжатия : С потерями
Размер потока : 283 Мбайт (9%)
Заголовок : Dub ( iTunes )
Язык : Russian
ServiceKind/String : Complete Main
Default : Да
Forced : Нет

Меню
00:00:00.000 : Chapter 1
00:05:42.592 : Chapter 2
00:08:27.716 : Chapter 3
00:15:01.400 : Chapter 4
00:16:29.655 : Chapter 5
00:21:25.117 : Chapter 6
00:25:45.252 : Chapter 7
00:29:08.914 : Chapter 8
00:33:45.023 : Chapter 9
00:40:27.216 : Chapter 10
00:44:37.925 : Chapter 11
00:47:42.318 : Chapter 12
00:53:04.515 : Chapter 13
00:55:27.241 : Chapter 14
01:02:36.711 : Chapter 15
01:09:57.527 : Chapter 16
01:13:48.382 : Chapter 17
01:19:26.637 : Chapter 18
01:24:28.146 : Chapter 19
01:31:17.263 : Chapter 20

Просьба к переливающим на другие сайты, в оформлении указывайте пожалуйста авторство группы R.G. HD-Films pb.wtf



Скачать Холодное сердце 2 через торрент https://d.radikal.ru/d11/2003/f4/22d1cb6dcabb.png Скачать, смотреть онлайн Холодное сердце 2 бесплантно в хорошем качестве Описание: Анна, Эльза, Кристоф, его верный олень Свен и никогда не унывающий снеговик Олаф должны будут покинуть уютное королевство ... 10 10 5
Info! Золотая раздача, скачанное не засчитывается.
Торрент: Зарегистрирован [2021-08-13 15:20] · скачан: 53 раз
Статус: √ проверено
Размер: 3.25 GB
Как cкачать? Как скачать Холодное сердце 2 через торрент | UTorrent

% Раздел Тема Автор DL S | L
3D Мультфильмы [ 6.44 GB ] Холодное сердце 2 в 3D / Frozen II in 3D [2019 мультфильм мюзикл BDRip 1080p ] Анаглиф от R.G. HD-Films slaventi-69 Скачать
1 | 0

28-11-2019 20:33  

Отключить всю рекламу на сайте

13-08-2021 17:59 Холодное сердце 2 Скачать торрент  

Спасибо за оперативность!
А дубляж в "Райя и последний дракон" вставиш? Или отдельной дорожкой выложиш?pb.wtf



28-08-2021 09:58 Холодное сердце 2 Скачать торрент  

Класс, спасибо! А можно увидеть в подобном качестве 720p 60 fps
ГАРФИЛД I и II с оригинальной и русской (с Олегом Табаковым) дорожками и SUB?pb.wtf



    Дорогой пользователь! Огромная просьба, поблагодарите релизера, оцените раздачу и оставьте свои комментарий, если Вы скачали Холодное сердце 2 через торрент бесплатно!
    Комментировать посты могут только пользователи прошедшие не сложную регистрацию
    Показать сообщения:    

    Холодное сердце 2 через торрент
    Скачать бесплатно Холодное сердце 2
    Холодное сердце 2 скачать торрент
    Холодное сердце 2 смотреть онлайн
    Cкачать фильм Холодное сердце 2 бесплатно
    Холодное сердце 2 скачать торрент в хорошем качестве
    Холодное сердце 2 смотреть онлайн бесплатно в хорошем качестве


    Вы не можете начинать темы
    Вы не можете отвечать на сообщения
    Вы не можете редактировать свои сообщения
    Вы не можете удалять свои сообщения
    Вы не можете голосовать в опросах
    Вы не можете прикреплять файлы к сообщениям
    Вы можете скачивать файлы