Присоединяйтесь к нам в Telegram!, здесь всегда актуальный адрес сайта, оперативная поддержка и многое другое!!

>

5.9

iTunes

7.4

iTunes

9.4

1 сезон

1

7.4

2 сезон

7.2

iTunes

7.3

1 сезон

13

6.1

iTunes

8.3

GOG

30

ULTIMATE

pack

9.9

Лицензия

ВАЖНО

ИГРА 18+

pack

7.3

RePack

MK11

7.7

RePack

jed

7.8

RePack

fifa19

8.5

RePack

RDR2

RePack

NEED FOR SPEED™ PAYBACK

5 сезон

9 сезон

Бесстыжие 9 сезон

Все сериалы

все сериалы на PB.wtf

RePack

FAR CRY 5

Anonymous, доброе утро, мы катастрофически не успеваем собрать деньги на оплату серверов, помогите нам пожалуйста 5,10,15р., для нас важна любая помощь . В качестве благодарности мы отключим Вам всю рекламу на сайте (укажите свой ник в строку Ваше имя)!

×
  
Magnet ссылка

Космический джем: Новое поколение / Space Jam: A New Legacy (Малкольм Д. Ли) [2021, Комедия, фэнтези, анимационный, приключения, семейный, спорт, WEB-DLRip-AVC] DUB [Кинопоиск HD] от MediaBit pb.wtf

Космический джем: Новое поколение через торрент pb.wtf

Раздают: 9 [ 412 KB/s ]
Размер: 2.24 GB | Добавлен: 3 мес. 19 д. назад | Торрент скачан:582 раза
Смотреть онлайн Космический джем: Новое поколение | Скачать    Ребята, помогите собрать деньги на оплату серверов!!!

13-08-2021 19:21 Космический джем: Новое поколение Скачать торрент  


Космический джем: Новое поколение / Space Jam: A New Legacy
Информация о фильме:
Название: Космический джем: Новое поколение
Оригинальное название: Space Jam: A New Legacy
Год выхода: 2021
Жанр: Комедия, фэнтези, анимационный, приключения, семейный, спорт
Режиссер: Малкольм Д. Ли

В ролях: Леброн Джеймс, Алекс Уэрта, Дон Чидл, Сонекуа Мартин-Грин, Кейар Джей Райт, Мартин Клебба, Ксоша Рокьюмор, Крис Дэвис, Скайлер Библ, Уитни Колмен, Питер Корнелл, Хассан Сэд, Деррик Гилберт, Дж. Лэйн Хиллман, Эрик Шекелфорд, Кассандра Старр, Харрисон Уайт

Описание: Суперзвезда баскетбола Леброн Джеймс вместе с маленьким сыном попадает в ловушку виртуальной реальности из-за недоброжелательного искусственного интеллекта. Чтобы выбраться на свободу, Леброн вместе с командой мультяшных персонажей должен выстоять на баскетбольной «дуэли» против цифровых двойников великих чемпионов. Продолжение баскетбольной фэнтези-комедии 1996 года. Сиквел фильма "Космический джем" (1996). Баскетболист Леброн Джеймс вместе с Багзом Банни попадают в ловушку виртуального пространства из-за мошеннического алгоритма Al-G Rhythm. Леброну предстоит разгадать план таинственного злодея и принять участие в эпическом баскетбольном матче, где его противниками станут цифровые версии суперзвезд баскетбола.

rating
Страна: США
Студия: Warner Bros.Warner Animation Group, Spring, Hill Entertainment
Продолжительность: 01:55:24
Перевод: Дублированный - Кинопоиск HD



Информация о файле:
Кодек: AVC
Формат: MKV
Качество: WEB-DLRip-AVC
Видео: MPEG-4 AVC, 1024x552, 23.976, 1876 kbps
Аудио RU: AC3, 6 ch, 48 kHz, 448 kbps
Аудио EN: AC3, 6 ch, 48 kHz, 448 kbps
Субтитры: Русские (Forced, full), английские
Навигация по главам: Да

General
Unique ID : 308833691826461039527056206623835401434 (0xE857349B26C904DC1000DB1F25F7ACDA)
Complete name : D:uTorrentРипы wolf1245Space.Jam.2021.DUB.WEB-DLRip-AVC.[wolf1245.MediaBit].mkv
Format : Matroska
Format version : Version 4
File size : 2.24 GiB
Duration : 1 h 55 min
Overall bit rate : 2 773 kb/s
Movie name : Space.Jam.2021.DUB.WEB-DLRip-AVC.[wolf1245.MediaBit]
Encoded date : UTC 2021-08-13 19:06:38
Writing application : mkvmerge v60.0.0 ('Are We Copies?') 64-bit
Writing library : libebml v1.4.2 + libmatroska v1.6.4
Attachments : poster.jpg
Video
ID : 1
Format : AVC
Format/Info : Advanced Video Codec
Format profile : High@L4.1
Format settings : CABAC / 12 Ref Frames
Format settings, CABAC : Yes
Format settings, Reference frames : 12 frames
Codec ID : V_MPEG4/ISO/AVC
Duration : 1 h 55 min
Bit rate : 1 876 kb/s
Width : 1 024 pixels
Height : 552 pixels
Display aspect ratio : 1.85:1
Frame rate mode : Constant
Frame rate : 23.976 (24000/1001) FPS
Color space : YUV
Chroma subsampling : 4:2:0
Bit depth : 8 bits
Scan type : Progressive
Bits/(Pixel*Frame) : 0.138
Stream size : 1.51 GiB (68%)
Title : -=[wolf1245.MediaBit]=-
Writing library : x264 core 157 r2958 57baac4
Encoding settings : cabac=1 / ref=12 / deblock=1:-3:-3 / analyse=0x3:0x133 / me=umh / subme=10 / psy=1 / psy_rd=0.98:0.05 / mixed_ref=1 / me_range=32 / chroma_me=1 / trellis=2 / 8x8dct=1 / cqm=0 / deadzone=21,11 / fast_pskip=1 / chroma_qp_offset=-3 / threads=10 / lookahead_threads=2 / sliced_threads=0 / nr=0 / decimate=1 / interlaced=0 / bluray_compat=0 / constrained_intra=0 / bframes=12 / b_pyramid=2 / b_adapt=2 / b_bias=0 / direct=3 / weightb=1 / open_gop=0 / weightp=2 / keyint=240 / keyint_min=24 / scenecut=40 / intra_refresh=0 / rc_lookahead=60 / rc=2pass / mbtree=1 / bitrate=1876 / ratetol=1.0 / qcomp=0.60 / qpmin=0 / qpmax=69 / qpstep=4 / cplxblur=20.0 / qblur=0.5 / vbv_maxrate=50000 / vbv_bufsize=62500 / nal_hrd=none / filler=0 / ip_ratio=1.40 / aq=3:0.80
Language : English
Default : Yes
Forced : No
Color range : Limited
Color primaries : BT.709
Transfer characteristics : BT.709
Matrix coefficients : BT.709
Audio #1
ID : 2
Format : AC-3
Format/Info : Audio Coding 3
Commercial name : Dolby Digital
Codec ID : A_AC3
Duration : 1 h 55 min
Bit rate mode : Constant
Bit rate : 448 kb/s
Channel(s) : 6 channels
Channel layout : L R C LFE Ls Rs
Sampling rate : 48.0 kHz
Frame rate : 31.250 FPS (1536 SPF)
Compression mode : Lossy
Stream size : 370 MiB (16%)
Title : DUB | Кинопоиск HD
Language : Russian
Service kind : Complete Main
Default : Yes
Forced : No
Audio #2
ID : 3
Format : AC-3
Format/Info : Audio Coding 3
Commercial name : Dolby Digital
Codec ID : A_AC3
Duration : 1 h 55 min
Bit rate mode : Constant
Bit rate : 448 kb/s
Channel(s) : 6 channels
Channel layout : L R C LFE Ls Rs
Sampling rate : 48.0 kHz
Frame rate : 31.250 FPS (1536 SPF)
Compression mode : Lossy
Stream size : 370 MiB (16%)
Title : Original
Language : English
Service kind : Complete Main
Default : No
Forced : No
Text #1
ID : 4
Format : UTF-8
Codec ID : S_TEXT/UTF8
Codec ID/Info : UTF-8 Plain Text
Duration : 1 h 54 min
Bit rate : 5 b/s
Count of elements : 122
Stream size : 4.49 KiB (0%)
Title : Forced
Language : Russian
Default : Yes
Forced : Yes
Text #2
ID : 5
Format : UTF-8
Codec ID : S_TEXT/UTF8
Codec ID/Info : UTF-8 Plain Text
Duration : 1 h 55 min
Bit rate : 117 b/s
Count of elements : 1963
Stream size : 98.9 KiB (0%)
Title : Full
Language : Russian
Default : No
Forced : No
Text #3
ID : 6
Format : UTF-8
Codec ID : S_TEXT/UTF8
Codec ID/Info : UTF-8 Plain Text
Duration : 1 h 55 min
Bit rate : 66 b/s
Count of elements : 2113
Stream size : 56.4 KiB (0%)
Title : Full
Language : English
Default : No
Forced : No
Text #4
ID : 7
Format : UTF-8
Codec ID : S_TEXT/UTF8
Codec ID/Info : UTF-8 Plain Text
Duration : 1 h 55 min
Bit rate : 88 b/s
Count of elements : 2655
Stream size : 74.5 KiB (0%)
Title : SDH
Language : English
Default : No
Forced : No
Menu
00:00:00.000 : :Scene 1
00:07:57.936 : :Scene 2
00:14:23.822 : :Scene 3
00:20:55.213 : :Scene 4
00:25:42.584 : :Scene 5
00:32:31.493 : :Scene 6
00:39:20.944 : :Scene 7
00:45:45.620 : :Scene 8
00:55:16.316 : :Scene 9
01:01:15.800 : :Scene 10
01:08:33.697 : :Scene 11
01:14:44.234 : :Scene 12
01:21:24.592 : :Scene 13
01:25:31.089 : :Scene 14
01:31:54.222 : :Scene 15
01:46:11.496 : :Scene 16
Релиз от: &
Автор релиза:
pb.wtf



Скачать Космический джем: Новое поколение через торрент https://i115.fastpic.org/big/2021/0813/c3/b96f7d8ee867d60515509672331d50c3.jpg Скачать, смотреть онлайн Космический джем: Новое поколение бесплантно в хорошем качестве Описание: Суперзвезда баскетбола Леброн Джеймс вместе с маленьким сыном попадает в ловушку виртуальной реальности из-за ... 10 10 14
Info! Золотая раздача, скачанное не засчитывается.
Торрент: Зарегистрирован [2021-08-13 19:21] · скачан: 582 раз
Статус: √ проверено
Размер: 2.24 GB
Как cкачать? Как скачать Космический джем: Новое поколение через торрент | UTorrent

28-11-2019 20:33  

Отключить всю рекламу на сайте

23-08-2021 13:24 Космический джем: Новое поколение Скачать торрент  

спс за оригинальную дорожку звука...слишком много хороших раздач только с русской делаютpb.wtf



02-09-2021 16:18 Космический джем: Новое поколение Скачать торрент  

Первая часть, которая 1996 года лучше)))!!!!! Помню те времена))pb.wtf



    Дорогой пользователь! Огромная просьба, поблагодарите релизера, оцените раздачу и оставьте свои комментарий, если Вы скачали Космический джем: Новое поколение через торрент бесплатно!
    Комментировать посты могут только пользователи прошедшие не сложную регистрацию
    Показать сообщения:    

    Космический джем: Новое поколение через торрент
    Скачать бесплатно Космический джем: Новое поколение
    Космический джем: Новое поколение скачать торрент
    Космический джем: Новое поколение смотреть онлайн
    Cкачать фильм Космический джем: Новое поколение бесплатно
    Космический джем: Новое поколение скачать торрент в хорошем качестве
    Космический джем: Новое поколение смотреть онлайн бесплатно в хорошем качестве


    Вы не можете начинать темы
    Вы не можете отвечать на сообщения
    Вы не можете редактировать свои сообщения
    Вы не можете удалять свои сообщения
    Вы не можете голосовать в опросах
    Вы не можете прикреплять файлы к сообщениям
    Вы можете скачивать файлы