Достать ножи: Стеклянная луковица

MVO

Добыча

Дубляж

Уэнсдэй

1 сезон

Тор

Дубляж

13 клиническая

1 сезон

Жестокая ночь

MVO

Одни из нас

1 сезон

Deluxe

pack

Рекомендуем

30

Пиратка

ВАЖНО

ВАЖНО

Ghostwire

Пиратка

jed

RePack

nioh2

RePack

RDR2

RePack

NEED FOR SPEED™ PAYBACK

RePack

скачать торрент

Кинопоиск HD

Острые козырьки 6 сезон

6 сезон

FAR CRY 6

RePack

скачать торрент

Лицензия

скачать торрент

MVO

1

1 сезон

скачать торрент

1 сезон

скачать торрент

Лицензия

  

Беккет / Beckett (Фердинандо Чито Филомарино) [2021, боевик, триллер, драма, криминал, WEB-DLRip-AVC] Дубляж [Netflix] от MediaBit

Беккет через торрент pb.wtf

Размер: 2.63 GB | Добавлен: 1 год 5 мес. назад | Торрент скачан:221 раз
Смотреть онлайн | Скачать | Поддержите нас   

14-08-2021 06:55 Беккет Скачать торрент  


Беккет / Beckett
Название: Беккет
Оригинальное название: Beckett
Год выхода: 2021
Жанр: боевик, триллер, драма, криминал
Режиссер: Фердинандо Чито Филомарино

В ролях: Джон Дэвид Вашингтон, Алисия Викандер, Бойд Холбрук, Вики Крипс, Марк Мардер, Дафна Александр, Йоргос Пирпассопулос, Ольга Спираки, Панос Коронис, Андреас Марианос, Мария Вотти, Изабелла Маргара, Эб Коэн, Леонардо Тимо, Лена Кицопулу, Димитра Месимерли, Мурсини Морелли

Описание: Находясь на отдыхе в Греции вместе со своей девушкой, американский турист Беккет попадает в автокатастрофу, после чего оказывается в бегах от пытающейся его убить полиции, замешанной в непонятном политическом заговоре. Всё, что ему нужно — добраться до посольства и понять, что случилось с его девушкой, пропавшей после аварии.



Страна: Италия, Бразилия, Греция, США
Студия: Faliro House Productions, Frenesy Film Company, MeMo Films, Rai Cinema, RT Features
Продолжительность: 01:50:07
Перевод: Профессиональный (дублированный) - Netflix



Информация о файле:
Кодек: AVC
Формат: MKV
Качество: WEB-DLRip-AVC
Видео: MPEG-4 AVC, 1024x552, 24.000 fps, 1876 kbps
Аудио RU: AC3, 6 ch, 48 kHz, 448 kbps
Аудио EN: AC3, 6 ch, 48 kHz, 448 kbps
Субтитры: Русские (Forced, Full), английские, румынские, украинские
Навигация по главам: Да

General
Unique ID : 325859674247297336246201673534412234002 (0xF5264A59A0C177C9F62F686800551D12)
Complete name : D:uTorrentРипы wolf1245Beckett.2021.Дубляж.Netflix.WEB-DLRip-AVC.[wolf1245.MediaBit].mkv
Format : Matroska
Format version : Version 4
File size : 2.63 GiB
Duration : 1 h 50 min
Overall bit rate : 3 414 kb/s
Movie name : Beckett.2021.Дубляж.Netflix.WEB-DLRip-AVC.[wolf1245.MediaBit]
Encoded date : UTC 2021-08-14 06:39:46
Writing application : mkvmerge v60.0.0 ('Are We Copies?') 64-bit
Writing library : libebml v1.4.2 + libmatroska v1.6.4
Video
ID : 1
Format : AVC
Format/Info : Advanced Video Codec
Format profile : [email protected]
Format settings : CABAC / 14 Ref Frames
Format settings, CABAC : Yes
Format settings, Reference frames : 14 frames
Codec ID : V_MPEG4/ISO/AVC
Duration : 1 h 50 min
Bit rate : 1 876 kb/s
Width : 1 024 pixels
Height : 552 pixels
Display aspect ratio : 1.85:1
Frame rate mode : Constant
Frame rate : 24.000 FPS
Color space : YUV
Chroma subsampling : 4:2:0
Bit depth : 8 bits
Scan type : Progressive
Bits/(Pixel*Frame) : 0.138
Stream size : 1.44 GiB (55%)
Title : -=[wolf1245.MediaBit]=-
Writing library : x264 core 157 r2958 57baac4
Encoding settings : cabac=1 / ref=14 / deblock=1:-3:-3 / analyse=0x3:0x133 / me=umh / subme=10 / psy=1 / psy_rd=1.00:0.05 / mixed_ref=1 / me_range=32 / chroma_me=1 / trellis=2 / 8x8dct=1 / cqm=0 / deadzone=21,11 / fast_pskip=1 / chroma_qp_offset=-3 / threads=10 / lookahead_threads=2 / sliced_threads=0 / nr=0 / decimate=1 / interlaced=0 / bluray_compat=0 / constrained_intra=0 / bframes=12 / b_pyramid=2 / b_adapt=2 / b_bias=0 / direct=3 / weightb=1 / open_gop=0 / weightp=2 / keyint=240 / keyint_min=24 / scenecut=40 / intra_refresh=0 / rc_lookahead=60 / rc=2pass / mbtree=1 / bitrate=1876 / ratetol=1.0 / qcomp=0.60 / qpmin=0 / qpmax=69 / qpstep=4 / cplxblur=20.0 / qblur=0.5 / vbv_maxrate=50000 / vbv_bufsize=62500 / nal_hrd=none / filler=0 / ip_ratio=1.40 / aq=3:0.80
Language : English
Default : Yes
Forced : No
Audio #1
ID : 2
Format : AC-3
Format/Info : Audio Coding 3
Commercial name : Dolby Digital
Codec ID : A_AC3
Duration : 1 h 50 min
Bit rate mode : Constant
Bit rate : 448 kb/s
Channel(s) : 6 channels
Channel layout : L R C LFE Ls Rs
Sampling rate : 48.0 kHz
Frame rate : 31.250 FPS (1536 SPF)
Compression mode : Lossy
Stream size : 353 MiB (13%)
Title : Дубляж | Netflix
Language : Russian
Service kind : Complete Main
Default : Yes
Forced : No
Audio #2
ID : 3
Format : AC-3
Format/Info : Audio Coding 3
Commercial name : Dolby Digital
Codec ID : A_AC3
Duration : 1 h 50 min
Bit rate mode : Constant
Bit rate : 448 kb/s
Channel(s) : 6 channels
Channel layout : L R C LFE Ls Rs
Sampling rate : 48.0 kHz
Frame rate : 31.250 FPS (1536 SPF)
Compression mode : Lossy
Stream size : 353 MiB (13%)
Title : Original
Language : English
Service kind : Complete Main
Default : No
Forced : No
Audio #3
ID : 4
Format : E-AC-3
Format/Info : Enhanced AC-3
Commercial name : Dolby Digital Plus
Codec ID : A_EAC3
Duration : 1 h 50 min
Bit rate mode : Constant
Bit rate : 640 kb/s
Channel(s) : 6 channels
Channel layout : L R C LFE Ls Rs
Sampling rate : 48.0 kHz
Frame rate : 31.250 FPS (1536 SPF)
Compression mode : Lossy
Stream size : 504 MiB (19%)
Language : English
Service kind : Complete Main
Default : No
Forced : No
Text #1
ID : 5
Format : UTF-8
Codec ID : S_TEXT/UTF8
Codec ID/Info : UTF-8 Plain Text
Duration : 1 h 47 min
Bit rate : 0 b/s
Count of elements : 7
Stream size : 211 Bytes (0%)
Title : Forced
Language : Russian
Default : Yes
Forced : No
Text #2
ID : 6
Format : UTF-8
Codec ID : S_TEXT/UTF8
Codec ID/Info : UTF-8 Plain Text
Duration : 1 h 47 min
Bit rate : 46 b/s
Count of elements : 734
Stream size : 36.7 KiB (0%)
Language : Russian
Default : No
Forced : No
Text #3
ID : 7
Format : UTF-8
Codec ID : S_TEXT/UTF8
Codec ID/Info : UTF-8 Plain Text
Duration : 1 h 46 min
Bit rate : 50 b/s
Count of elements : 1338
Stream size : 39.3 KiB (0%)
Title : SDH
Language : English
Default : No
Forced : No
Text #4
ID : 8
Format : UTF-8
Codec ID : S_TEXT/UTF8
Codec ID/Info : UTF-8 Plain Text
Duration : 1 h 47 min
Bit rate : 28 b/s
Count of elements : 730
Stream size : 22.1 KiB (0%)
Language : Romanian
Default : No
Forced : No
Text #5
ID : 9
Format : UTF-8
Codec ID : S_TEXT/UTF8
Codec ID/Info : UTF-8 Plain Text
Duration : 1 h 47 min
Bit rate : 43 b/s
Count of elements : 732
Stream size : 34.6 KiB (0%)
Language : Ukrainian
Default : No
Forced : No
Релиз от: amp;




Скачать Беккет через торрент https://i115.fastpic.org/big/2021/0814/93/49ef71fc425ce1d6dd407acf79a9cc93.jpg Скачать, смотреть онлайн Беккет бесплантно в хорошем качестве Описание: Находясь на отдыхе в Греции вместе со своей девушкой, американский турист Беккет попадает в автокатастрофу, после чего ... 10 10 7
Торрент: Зарегистрирован [2021-08-14 06:55] · скачан: 221 раз
Статус: √ проверено
Размер: 2.63 GB
Как cкачать? Как скачать Беккет через торрент | UTorrent

28-11-2019 20:33  


Отключить вcю реклaмy на сайте, в т.ч. и в плеере онлайн просмотра!

14-08-2021 13:34 Беккет Скачать торрент  

от боевика тут конечно нет ничего.
это драма, отчасти политический триллер, не более.
если не посмотрите, ничего не потеряете, лучше посмотреть Новый порядок / Nuevo orden / New Order , если честно!



15-08-2021 04:29 Беккет Скачать торрент  

Смотреть можно.



    Дорогой пользователь! Огромная просьба, поблагодарите релизера, оцените раздачу и оставьте свои комментарий, если Вы скачали Беккет через торрент бесплатно!!
    Комментировать посты могут только пользователи прошедшие не сложную регистрацию
    Показать сообщения:    


    Беккет через торрент
    Скачать бесплатно Беккет
    Беккет скачать торрент
    Беккет смотреть онлайн
    Cкачать фильм Беккет бесплатно
    Беккет скачать торрент в хорошем качестве
    Беккет смотреть онлайн бесплатно в хорошем качестве
    Вы не можете начинать темы
    Вы не можете отвечать на сообщения
    Вы не можете редактировать свои сообщения
    Вы не можете удалять свои сообщения
    Вы не можете голосовать в опросах
    Вы не можете прикреплять файлы к сообщениям
    Вы можете скачивать файлы
    Беккет / Beckett [2021, боевик, триллер, драма, криминал, WEB-DLRip-AVC] Дубляж [Netflix] от MediaBit смотреть онлайн, скачать торрент picoco.icu