Присоединяйтесь к нам в Telegram!, здесь всегда актуальный адрес сайта, оперативная поддержка и многое другое!!

>

5.9

iTunes

7.4

iTunes

9.4

1 сезон

1

7.4

2 сезон

7.2

iTunes

7.3

1 сезон

13

6.1

iTunes

8.3

GOG

30

ULTIMATE

pack

9.9

Лицензия

ВАЖНО

ИГРА 18+

pack

7.3

RePack

MK11

7.7

RePack

jed

7.8

RePack

fifa19

8.5

RePack

RDR2

RePack

NEED FOR SPEED™ PAYBACK

5 сезон

9 сезон

Бесстыжие 9 сезон

Все сериалы

все сериалы на PB.wtf

RePack

FAR CRY 5

Anonymous, добрый вечер, мы катастрофически не успеваем собрать деньги на оплату серверов, помогите нам пожалуйста 5,10,15р., для нас важна любая помощь . В качестве благодарности мы отключим Вам всю рекламу на сайте (укажите свой ник в строку Ваше имя)!

×
  
Magnet ссылка

Бунтарка / Moxie (Эми Полер) [2021, драма, комедия музыка, WEB-DLRip-AVC] DUB [Netflix] от MediaBit pb.wtf

Бунтарка через торрент pb.wtf

Раздают: 1 [ 0 KB/s ]
Размер: 2.36 GB | Добавлен: 3 мес. 19 д. назад | Торрент скачан:23 раза
Смотреть онлайн Бунтарка | Скачать    Ребята, помогите собрать деньги на оплату серверов!!!

14-08-2021 15:49 Бунтарка Скачать торрент  


Бунтарка / Moxie
Информация о фильме:
Название: Бунтарка
Оригинальное название: Moxie
Год выхода: 2021
Жанр: драма, комедия музыка
Режиссер: Эми Полер

В ролях: Хэдли Робинсон, Лорен Цай, Алисия Паскуаль-Пена, Нико Хирага, Сабрина Хэскет, Патрик Шварценеггер, Сидни Парк, Анжелика Вашингтон, Эмили Хоппер, Джози Тота

Описание: Устав от сексистского и токсичного статус-кво в своей средней школе, застенчивая 16-летняя девушка черпает вдохновение в мятежном прошлом своей матери и анонимно издает журнал, который разжигает общешкольную революцию гнева.



Страна: США
Студия: Paper Kite Productions, Пифагор
Продолжительность: 01:51:42
Перевод: Дублированный - Netflix



Информация о файле:
Кодек: AVC
Формат: MKV
Качество: WEB-DLRip-AVC
Видео: MPEG-4 AVC, 1024x512, 23.976, 2123 kb/s
Аудио RU: AC3, 6 ch, 48 kHz, 448 kbps
Аудио EN: AC3, 6 ch, 48 kHz, 448 kbps
Субтитры: русские (Forced, Full), английские, финские, французские, немецкие, итальянские, польские, португальские, испанские, шведские

x264 info: frame I:1531 Avg QP:12.65 size:107346
x264 info: frame P:37056 Avg QP:16.69 size: 26243
x264 info: frame B:122275 Avg QP:21.17 size: 5236
General
Unique ID : 35586175404163925194531461394513087401 (0x1AC5A5E8AED3CD8666FA1C0E34B14BA9)
Complete name : D:uTorrentРипы wolf1245Moxie.2021.DUB.Netflix.WEB-DLRip-AVC.[wolf1245.MediaBit].mkv
Format : Matroska
Format version : Version 4
File size : 2.36 GiB
Duration : 1 h 51 min
Overall bit rate : 3 020 kb/s
Movie name : Moxie.2021.DUB.Netflix.WEB-DLRip-AVC.[wolf1245.MediaBit]
Encoded date : UTC 2021-08-14 15:31:55
Writing application : mkvmerge v60.0.0 ('Are We Copies?') 64-bit
Writing library : libebml v1.4.2 + libmatroska v1.6.4
Video
ID : 1
Format : AVC
Format/Info : Advanced Video Codec
Format profile : High@L4.1
Format settings : CABAC / 14 Ref Frames
Format settings, CABAC : Yes
Format settings, Reference frames : 14 frames
Codec ID : V_MPEG4/ISO/AVC
Duration : 1 h 51 min
Bit rate : 2 123 kb/s
Width : 1 024 pixels
Height : 512 pixels
Display aspect ratio : 2.000
Frame rate mode : Constant
Frame rate : 24.000 FPS
Color space : YUV
Chroma subsampling : 4:2:0
Bit depth : 8 bits
Scan type : Progressive
Bits/(Pixel*Frame) : 0.169
Stream size : 1.66 GiB (70%)
Title : -=[wolf1245.MediaBit]=-
Writing library : x264 core 157 r2958 57baac4
Encoding settings : cabac=1 / ref=14 / deblock=1:-3:-2 / analyse=0x3:0x133 / me=umh / subme=10 / psy=1 / psy_rd=1.00:0.07 / mixed_ref=1 / me_range=32 / chroma_me=1 / trellis=2 / 8x8dct=1 / cqm=0 / deadzone=21,11 / fast_pskip=1 / chroma_qp_offset=-3 / threads=10 / lookahead_threads=2 / sliced_threads=0 / nr=0 / decimate=1 / interlaced=0 / bluray_compat=0 / constrained_intra=0 / bframes=12 / b_pyramid=2 / b_adapt=2 / b_bias=0 / direct=3 / weightb=1 / open_gop=0 / weightp=2 / keyint=240 / keyint_min=24 / scenecut=40 / intra_refresh=0 / rc_lookahead=60 / rc=2pass / mbtree=1 / bitrate=2123 / ratetol=1.0 / qcomp=0.60 / qpmin=0 / qpmax=69 / qpstep=4 / cplxblur=20.0 / qblur=0.5 / vbv_maxrate=50000 / vbv_bufsize=62500 / nal_hrd=none / filler=0 / ip_ratio=1.40 / aq=3:0.80
Language : English
Default : Yes
Forced : No
Audio #1
ID : 2
Format : AC-3
Format/Info : Audio Coding 3
Commercial name : Dolby Digital
Codec ID : A_AC3
Duration : 1 h 51 min
Bit rate mode : Constant
Bit rate : 448 kb/s
Channel(s) : 6 channels
Channel layout : L R C LFE Ls Rs
Sampling rate : 48.0 kHz
Frame rate : 31.250 FPS (1536 SPF)
Compression mode : Lossy
Stream size : 358 MiB (15%)
Title : DUB | Netflix
Language : Russian
Service kind : Complete Main
Default : Yes
Forced : No
Audio #2
ID : 3
Format : AC-3
Format/Info : Audio Coding 3
Commercial name : Dolby Digital
Codec ID : A_AC3
Duration : 1 h 51 min
Bit rate mode : Constant
Bit rate : 448 kb/s
Channel(s) : 6 channels
Channel layout : L R C LFE Ls Rs
Sampling rate : 48.0 kHz
Frame rate : 31.250 FPS (1536 SPF)
Compression mode : Lossy
Stream size : 358 MiB (15%)
Title : Original | English
Language : English
Service kind : Complete Main
Default : No
Forced : No
Text #1
ID : 4
Format : UTF-8
Codec ID : S_TEXT/UTF8
Codec ID/Info : UTF-8 Plain Text
Duration : 1 h 43 min
Bit rate : 6 b/s
Count of elements : 78
Stream size : 4.94 KiB (0%)
Title : Forced
Language : Russian
Default : Yes
Forced : No
Text #2
ID : 5
Format : UTF-8
Codec ID : S_TEXT/UTF8
Codec ID/Info : UTF-8 Plain Text
Duration : 1 h 49 min
Bit rate : 100 b/s
Count of elements : 1565
Stream size : 80.7 KiB (0%)
Title : Russian
Language : Russian
Default : No
Forced : No
Text #3
ID : 6
Format : UTF-8
Codec ID : S_TEXT/UTF8
Codec ID/Info : UTF-8 Plain Text
Duration : 1 h 49 min
Bit rate : 106 b/s
Count of elements : 1888
Stream size : 85.1 KiB (0%)
Title : English
Language : English
Default : No
Forced : No
Text #4
ID : 7
Format : UTF-8
Codec ID : S_TEXT/UTF8
Codec ID/Info : UTF-8 Plain Text
Duration : 1 h 49 min
Bit rate : 58 b/s
Count of elements : 1180
Stream size : 46.7 KiB (0%)
Title : Finnish
Language : Finnish
Default : No
Forced : No
Text #5
ID : 8
Format : UTF-8
Codec ID : S_TEXT/UTF8
Codec ID/Info : UTF-8 Plain Text
Duration : 1 h 49 min
Bit rate : 59 b/s
Count of elements : 1418
Stream size : 48.0 KiB (0%)
Title : French
Language : French
Default : No
Forced : No
Text #6
ID : 9
Format : UTF-8
Codec ID : S_TEXT/UTF8
Codec ID/Info : UTF-8 Plain Text
Duration : 1 h 49 min
Bit rate : 62 b/s
Count of elements : 1433
Stream size : 50.2 KiB (0%)
Title : German
Language : German
Default : No
Forced : No
Text #7
ID : 10
Format : UTF-8
Codec ID : S_TEXT/UTF8
Codec ID/Info : UTF-8 Plain Text
Duration : 1 h 49 min
Bit rate : 58 b/s
Count of elements : 1412
Stream size : 47.2 KiB (0%)
Title : Italian
Language : Italian
Default : No
Forced : No
Text #8
ID : 11
Format : UTF-8
Codec ID : S_TEXT/UTF8
Codec ID/Info : UTF-8 Plain Text
Duration : 1 h 49 min
Bit rate : 54 b/s
Count of elements : 1453
Stream size : 43.7 KiB (0%)
Title : Polish
Language : Polish
Default : No
Forced : No
Text #9
ID : 12
Format : UTF-8
Codec ID : S_TEXT/UTF8
Codec ID/Info : UTF-8 Plain Text
Duration : 1 h 49 min
Bit rate : 62 b/s
Count of elements : 1491
Stream size : 50.4 KiB (0%)
Title : Portuguese
Language : Portuguese
Default : No
Forced : No
Text #10
ID : 13
Format : UTF-8
Codec ID : S_TEXT/UTF8
Codec ID/Info : UTF-8 Plain Text
Duration : 1 h 49 min
Bit rate : 58 b/s
Count of elements : 1463
Stream size : 47.2 KiB (0%)
Title : European Spanish
Language : Spanish
Default : No
Forced : No
Text #11
ID : 14
Format : UTF-8
Codec ID : S_TEXT/UTF8
Codec ID/Info : UTF-8 Plain Text
Duration : 1 h 49 min
Bit rate : 56 b/s
Count of elements : 1369
Stream size : 45.5 KiB (0%)
Title : Swedish
Language : Swedish
Default : No
Forced : No
Релиз от: &
Автор релиза:
pb.wtf



Скачать Бунтарка через торрент https://i115.fastpic.org/big/2021/0814/2a/23815bf5bc519f1383587c7198abba2a.jpg Скачать, смотреть онлайн Бунтарка бесплантно в хорошем качестве Описание: Устав от сексистского и токсичного статус-кво в своей средней школе, застенчивая 16-летняя девушка черпает вдохновение в ... 10 10 3
Торрент: Зарегистрирован [2021-08-14 15:49] · скачан: 23 раз
Статус: √ проверено
Размер: 2.36 GB
Как cкачать? Как скачать Бунтарка через торрент | UTorrent

28-11-2019 20:33  

Отключить всю рекламу на сайте

    Дорогой пользователь! Огромная просьба, поблагодарите релизера, оцените раздачу и оставьте свои комментарий, если Вы скачали Бунтарка через торрент бесплатно!
    Комментировать посты могут только пользователи прошедшие не сложную регистрацию
    Показать сообщения:    

    Бунтарка через торрент
    Скачать бесплатно Бунтарка
    Бунтарка скачать торрент
    Бунтарка смотреть онлайн
    Cкачать фильм Бунтарка бесплатно
    Бунтарка скачать торрент в хорошем качестве
    Бунтарка смотреть онлайн бесплатно в хорошем качестве


    Вы не можете начинать темы
    Вы не можете отвечать на сообщения
    Вы не можете редактировать свои сообщения
    Вы не можете удалять свои сообщения
    Вы не можете голосовать в опросах
    Вы не можете прикреплять файлы к сообщениям
    Вы можете скачивать файлы