Всегда рабочее зеркало без VPN и Proxy просто перед .vidak.icu напиши любое слово или цифру, Пример http://0i6s.vidak.icu

MVO

2 сезон

2 сезон

1

1 сезон

iTunes

2 сезон

13

1 сезон

Deluxe

pack

Рекомендуем

Пиратка

30

ВАЖНО

RePack

MK11

RePack

jed

RePack

fifa19

RePack

RDR2

RePack

NEED FOR SPEED™ PAYBACK

Кинопоиск HD

6 сезон

 Острые козырьки 6 сезон

Все сериалы

все сериалы на PB.wtf

RePack

FAR CRY 5

Anonymous, нам критически не хватает 5601 руб. на оплату серверов и переферии за Апрель, помоги нам пожалуйста, вся надежда только на тебя. В благодарность мы отключим тебе всю рекламу на сайте!

×
  
Magnet ссылка

Бабадук / The Babadook (Дженнифер Кент) [2014, Ужасы, драма, UHD BDRemux 2160p] DUB [Лицензия R5] pb.wtf

Бабадук через торрент pb.wtf

Размер: 44.93 GB | Добавлен: 9 мес. назад | Торрент скачан:14 раз
Смотреть онлайн Бабадук | Скачать    Ребята, помогите собрать деньги на оплату серверов!!!

15-08-2021 04:32 Бабадук Скачать торрент  

Бабадук | The Babadook
Год выпуска: 2014
Страна: Австралия, Канада
Студия: Causeway Films, Smoking Gun Productions
Жанр: Ужасы, драма
Продолжительность: 01:33:53
Перевод: Дублированный | Лицензия R5
Субтитры: Aнглийские

Режиссер: Дженнифер Кент

rating

В ролях: Эсси Дэвис, Ной Вайсман, Хейли МакЭлхинни, Дэниэл Хеншэлл, Барбара Уэст, Бенжамин Винспер, Тиффани Линдолл-Найт, Крэйг Бехенна, Кармел Джонсон

Описание: Шесть лет назад Амелия в один день потеряла мужа и родила сына. Сэмуэлю идёт уже седьмой год, но ему везде мерещатся чудовища. Однажды перед сном мальчик просит маму почитать ему найденную книгу об ужасном монстре. С этого момента его страхи получают физическое воплощение в жутком Бабадуке.

Качество: UHD BDRemux 2160p
Формат: MKV

Видео: 3840x2160 at 23.976 fps, MPEG-H HEVC HDR Video, ~ 64900 kbps avg
Аудио #01: 48 kHz, AC3, 5.1, 384 Kbps | iTunes | RUS |
Аудио #02: 48 kHz, DTS-HD MA, 5.1, 3198 Kbps | Оригинал | ENG |
скриншот  скриншот  скриншот  

скриншот  скриншот  скриншот  

General
Unique ID : 178196818333851525372306270985333573254 (0x860F7576B18BE5AE104B801FEC410686)
Complete name : F:VideoThe.Babadook.2014.2160p.BDREMUX.2160p.seleZen.mkv
Format : Matroska
Format version : Version 4
File size : 44.9 GiB
Duration : 1 h 33 min
Overall bit rate mode : Variable
Overall bit rate : 68.5 Mb/s
Movie name : The Babadook 2014 4K from seleZen
Encoded date : UTC 2021-08-14 07:43:08
Writing application : mkvmerge v59.0.0 ('Shining Star') 64-bit
Writing library : libebml v1.4.2 + libmatroska v1.6.4

Video
ID : 1
Format : HEVC
Format/Info : High Efficiency Video Coding
Format profile : Main 10@L5.1@High
HDR format : SMPTE ST 2086, HDR10 compatible
Codec ID : V_MPEGH/ISO/HEVC
Duration : 1 h 33 min
Bit rate : 64.9 Mb/s
Width : 3 840 pixels
Height : 2 160 pixels
Display aspect ratio : 16:9
Frame rate mode : Constant
Frame rate : 23.976 (24000/1001) FPS
Color space : YUV
Chroma subsampling : 4:2:0 (Type 2)
Bit depth : 10 bits
Bits/(Pixel*Frame) : 0.326
Stream size : 42.5 GiB (95%)
Language : English
Default : Yes
Forced : No
Color range : Limited
Color primaries : BT.2020
Transfer characteristics : PQ
Matrix coefficients : BT.2020 non-constant
Mastering display color pri : BT.2020
Mastering display luminance : min: 0.0001 cd/m2, max: 1000 cd/m2
Maximum Content Light Level : 1000 cd/m2
Maximum Frame-Average Light : 180 cd/m2

Audio #1
ID : 2
Format : AC-3
Format/Info : Audio Coding 3
Commercial name : Dolby Digital
Codec ID : A_AC3
Duration : 1 h 33 min
Bit rate mode : Constant
Bit rate : 448 kb/s
Channel(s) : 6 channels
Channel layout : L R C LFE Ls Rs
Sampling rate : 48.0 kHz
Frame rate : 31.250 FPS (1536 SPF)
Compression mode : Lossy
Stream size : 301 MiB (1%)
Title : Dub [License R5]
Language : Russian
Service kind : Complete Main
Default : Yes
Forced : Yes

Audio #2
ID : 3
Format : DTS XLL
Format/Info : Digital Theater Systems
Commercial name : DTS-HD Master Audio
Codec ID : A_DTS
Duration : 1 h 33 min
Bit rate mode : Variable
Bit rate : 3 198 kb/s
Channel(s) : 6 channels
Channel layout : C L R Ls Rs LFE
Sampling rate : 48.0 kHz
Frame rate : 93.750 FPS (512 SPF)
Bit depth : 24 bits
Compression mode : Lossless
Stream size : 2.10 GiB (5%)
Title : Original
Language : English
Default : No
Forced : No

Text #1
ID : 4
Format : UTF-8
Codec ID : S_TEXT/UTF8
Codec ID/Info : UTF-8 Plain Text
Duration : 1 h 28 min
Bit rate : 64 b/s
Count of elements : 859
Stream size : 42.0 KiB (0%)
Title : Full
Language : Russian
Default : No
Forced : No

Text #2
ID : 5
Format : UTF-8
Codec ID : S_TEXT/UTF8
Codec ID/Info : UTF-8 Plain Text
Duration : 1 h 28 min
Bit rate : 36 b/s
Count of elements : 839
Stream size : 23.9 KiB (0%)
Title : Full
Language : English
Default : No
Forced : No

Menu
00:00:00.000 : Nightmares
00:06:02.070 : Behavioural Problems
00:10:50.692 : Mister Babadook
00:17:48.693 : Bingo
00:21:51.352 : Don't Let It In!
00:28:50.479 : Birthday Party
00:36:40.240 : Someone Is Stalking Me And Samuel
00:46:03.344 : Stay Up
00:54:15.627 : Disobedient
01:02:16.024 : You Can Bring Me The Boy
01:08:49.208 : Run As Fast As You Can!
01:16:07.062 : You Can't Get Rid Of The Babadook
01:25:06.643 : Happy Birthday
01:30:22.167 : End Credits

pb.wtf



Скачать Бабадук через торрент https://a.radikal.ru/a36/2108/58/e7fce4f1382d.jpg Скачать, смотреть онлайн Бабадук бесплантно в хорошем качестве Описание: Шесть лет назад Амелия в один день потеряла мужа и родила сына. Сэмуэлю идёт уже седьмой год, но ему везде мерещатся чудовища. ... 10 10 2
Торрент: Зарегистрирован [2021-08-15 04:32] · скачан: 14 раз
Статус: √ проверено
Размер: 44.93 GB
Как cкачать? Как скачать Бабадук через торрент | UTorrent

% Раздел Тема Автор DL S | L
Фильмы 2014 [DVDrip, WEB-DLRip, HDrip] [ 1.46 GB ] Бабадук / The Babadook [2014 BDRip] - [] Twi7ter Скачать
2 | 0
Фильмы с авторской озвучкой [ 3.11 GB ] Бабадук / The Babadook [2014 WEB-DL 720p Авторский ] кэп Скачать
1 | 0
Фильмы [HD 720p, 1080p] (Хороший звук DUB, MVO) [ 4.48 GB ] Бабадук / The Babadook [2014 BDRip 720p [НТВ Ворон Скачать
1 | 0
Фильмы 2014 [DVDrip, WEB-DLRip, HDrip] [ 2.14 GB ] Бабадук / The Babadook [2014 BDRip-AVC от HELLYWOOD / [НТВ Ворон Скачать
1 | 0
Фильмы с авторской озвучкой [ 1.43 GB ] Бабадук / The Babadook [2014 WEB-DLRip Авторский ] makarevich Скачать
1 | 0
Фильмы с авторской озвучкой [ 744 MB ] Бабадук / The Babadook [2014 WEB-DLRip] АVO khagkfgkahgaer Скачать
1 | 0
Фильмы без перевода [ 1.43 GB ] Бабадук / The Babadook [2014 WEB-DLRip Оригинал] makarevich Скачать
1 | 0

28-11-2019 20:33  

Отключить всю рекламу на сайте

15-08-2021 07:06 Бабадук Скачать торрент  

ободок?pb.wtf



    Дорогой пользователь! Огромная просьба, поблагодарите релизера, оцените раздачу и оставьте свои комментарий, если Вы скачали Бабадук через торрент бесплатно!
    Комментировать посты могут только пользователи прошедшие не сложную регистрацию
    Показать сообщения:    

    Бабадук через торрент
    Скачать бесплатно Бабадук
    Бабадук скачать торрент
    Бабадук смотреть онлайн
    Cкачать фильм Бабадук бесплатно
    Бабадук скачать торрент в хорошем качестве
    Бабадук смотреть онлайн бесплатно в хорошем качестве


    Вы не можете начинать темы
    Вы не можете отвечать на сообщения
    Вы не можете редактировать свои сообщения
    Вы не можете удалять свои сообщения
    Вы не можете голосовать в опросах
    Вы не можете прикреплять файлы к сообщениям
    Вы можете скачивать файлы