Всегда рабочее зеркало без VPN и Proxy просто перед .vidak.icu напиши любое слово или цифру, Пример http://ud6b.vidak.icu

MVO

2 сезон

1 сезон

1

1 сезон

iTunes

2 сезон

13

1 сезон

Deluxe

pack

Рекомендуем

Пиратка

30

ВАЖНО

RePack

MK11

RePack

jed

RePack

fifa19

RePack

RDR2

RePack

NEED FOR SPEED™ PAYBACK

Кинопоиск HD

6 сезон

 Острые козырьки 6 сезон

Все сериалы

все сериалы на PB.wtf

RePack

FAR CRY 5

Anonymous, нам критически не хватает 5601 руб. на оплату серверов и переферии за Апрель, помоги нам пожалуйста, вся надежда только на тебя. В благодарность мы отключим тебе всю рекламу на сайте!

×
  
Magnet ссылка

Обливион / Oblivion (Джозеф Косински) [2013 г., фантастика, боевик, триллер, Hybrid 720p / 60 FPS, Дубляж] ( Open Matte ) от R.G. HD-Films pb.wtf

Обливион через торрент pb.wtf

Раздают: 1 [ 0 KB/s ]
Размер: 5.55 GB | Добавлен: 9 мес. назад | Торрент скачан:121 раз
Смотреть онлайн Обливион | Скачать    Ребята, помогите собрать деньги на оплату серверов!!!

16-08-2021 11:50 Обливион Скачать торрент  

Обливион / Oblivion
Год выпуска: 2013
Страна: США
Жанр: фантастика, боевик, триллер
Продолжительность: 02:03:25
Перевод: Дубляж
Субтитры: Русские (полные ), украинские (форс.), английские (Full + SDH)

Режиссер: Джозеф Косински

Бюджет: $120 000 000
Премьера в мире: 26 марта 2013

rating

В ролях: Том Круз, Ольга Куриленко, Морган Фриман, Андреа Райзборо, Николай Костер-Вальдау, Мелисса Лео, Зои Белл, Эбигейл Лоу, Изабель Лоу, Дэвид Мэдисон

Описание: Земля, пережившая войну с инопланетными захватчиками, опустела; остатки человечества готовятся покинуть непригодную для жизни планету. Главный герой — техник по обслуживанию дронов — находит разбившийся корабль NASA, команда которого погибает у него на глазах. Ему удаётся спасти лишь одну женщину — и вскоре он понимает, что это перевернёт его жизнь.

Качество: Hybrid 720p / 60 FPS
Формат: MKV
Видео кодек: H.264
Аудио кодек: AC3
Видео: x264, 1280 x 720 ( 16:9 ), 6052 kbps, 60,000 fps, ( 0.109 bpp)
Аудио#1: Русский, AC-3, 48.0 KHz, 6 ch, 384 Kbps Dub
Релиз от: Автор рипа: slaventi-69
x264 [info]: frame I:2034 Avg QP:14.80 size: 97975
x264 [info]: frame P:135284 Avg QP:15.65 size: 24376
x264 [info]: frame B:306994 Avg QP:18.66 size: 6856
x264 [info]: consecutive B-frames: 8.8% 3.6% 16.8% 24.8% 26.0% 20.0%


Общее
Уникальный идентификатор : 214018691127060422083963856788424022285 (0xA1028026AAD7119F110532584588D90D)
Полное имя : F:\60 FPS\Oblivion.(2013).HybridRip.720p.(60 Fps).(Open Matte).mkv
Формат : Matroska
Версия формата : Version 4
Размер файла : 5,55 Гбайт
Продолжительность : 2 ч. 3 м.
Общий поток : 6440 Кбит/сек
Название фильма : Обливион / Oblivion (2013) HybridRip 720p (60 Fps) | Open Matte
Дата кодирования : UTC 2021-08-16 11:22:25
Программа кодирования : mkvmerge v56.1.0 ('My Friend') 32-bit
Библиотека кодирования : libebml v1.4.2 + libmatroska v1.6.4

Видео
Идентификатор : 1
Формат : AVC
Формат/Информация : Advanced Video Codec
Профиль формата : High@L4.1
Настройки формата : CABAC / 9 Ref Frames
Параметр CABAC формата : Да
Параметр RefFrames формата : 9 кадров
Идентификатор кодека : V_MPEG4/ISO/AVC
Продолжительность : 2 ч. 3 м.
Битрейт : 6052 Кбит/сек
Ширина : 1280 пикселей
Высота : 720 пикселей
Соотношение сторон : 16:9
Режим частоты кадров : Постоянный
Частота кадров : 60,000 кадров/сек
Цветовое пространство : YUV
Субдискретизация насыщенности : 4:2:0
Битовая глубина : 8 бит
Тип развёртки : Прогрессивная
Бит/(Пиксели*Кадры) : 0.109
Размер потока : 5,22 Гбайт (94%)
Заголовок : slaventi-69 ( R.G. HD-Films | 60 fps )
Библиотека кодирования : x264 core 130 r2273 b3065e6
Настройки программы : cabac=1 / ref=10 / deblock=1:-3:-3 / analyse=0x3:0x133 / me=umh / subme=9 / psy=1 / psy_rd=1.00:0.00 / mixed_ref=1 / me_range=32 / chroma_me=1 / trellis=2 / 8x8dct=1 / cqm=0 / deadzone=21,11 / fast_pskip=0 / chroma_qp_offset=-2 / threads=10 / lookahead_threads=4 / sliced_threads=0 / nr=0 / decimate=1 / interlaced=0 / bluray_compat=0 / constrained_intra=0 / bframes=5 / b_pyramid=1 / b_adapt=2 / b_bias=0 / direct=2 / weightb=1 / open_gop=0 / weightp=2 / keyint=600 / keyint_min=23 / scenecut=40 / intra_refresh=0 / rc=crf / mbtree=0 / crf=16.7 / qcomp=0.60 / qpmin=0 / qpmax=69 / qpstep=4 / ip_ratio=1.40 / pb_ratio=1.30 / aq=1:1.00
Язык : English
Default : Да
Forced : Нет

Аудио
Идентификатор : 2
Формат : AC-3
Формат/Информация : Audio Coding 3
Коммерческое название : Dolby Digital
Идентификатор кодека : A_AC3
Продолжительность : 2 ч. 3 м.
Вид битрейта : Постоянный
Битрейт : 384 Кбит/сек
Каналы : 6 каналов
Channel layout : L R C LFE Ls Rs
Частота : 48,0 КГц
Частота кадров : 31,250 кадров/сек (1536 SPF)
Битовая глубина : 16 бит
Метод сжатия : С потерями
Размер потока : 339 Мбайт (6%)
Заголовок : Dub
Язык : Russian
ServiceKind/String : Complete Main
Default : Да
Forced : Нет

Текст #1
Идентификатор : 3
Формат : UTF-8
Идентификатор кодека : S_TEXT/UTF8
Идентификатор кодека/Информация : UTF-8 Plain Text
Продолжительность : 1 ч. 11 м.
Битрейт : 0 бит/сек
ElementCount : 14
Размер потока : 306 байт (0%)
Заголовок : Forced
Язык : Ukrainian
Default : Нет
Forced : Нет

Текст #2
Идентификатор : 4
Формат : UTF-8
Идентификатор кодека : S_TEXT/UTF8
Идентификатор кодека/Информация : UTF-8 Plain Text
Продолжительность : 1 ч. 57 м.
Битрейт : 50 бит/сек
ElementCount : 944
Размер потока : 43,3 Кбайт (0%)
Заголовок : Full-length
Язык : Russian
Default : Нет
Forced : Нет

Текст #3
Идентификатор : 5
Формат : UTF-8
Идентификатор кодека : S_TEXT/UTF8
Идентификатор кодека/Информация : UTF-8 Plain Text
Продолжительность : 1 ч. 57 м.
Битрейт : 55 бит/сек
ElementCount : 970
Размер потока : 47,5 Кбайт (0%)
Заголовок : Full-length (E. Voronine)
Язык : Russian
Default : Нет
Forced : Нет

Текст #4
Идентификатор : 6
Формат : UTF-8
Идентификатор кодека : S_TEXT/UTF8
Идентификатор кодека/Информация : UTF-8 Plain Text
Продолжительность : 1 ч. 57 м.
Битрейт : 31 бит/сек
ElementCount : 950
Размер потока : 27,5 Кбайт (0%)
Заголовок : Full-length
Язык : English
Default : Нет
Forced : Нет

Текст #5
Идентификатор : 7
Формат : UTF-8
Идентификатор кодека : S_TEXT/UTF8
Идентификатор кодека/Информация : UTF-8 Plain Text
Продолжительность : 1 ч. 57 м.
Битрейт : 33 бит/сек
ElementCount : 1020
Размер потока : 28,5 Кбайт (0%)
Заголовок : SDH
Язык : English
Default : Нет
Forced : Нет

Меню
00:00:00.000 : :Chapter 1
00:04:31.605 : :Chapter 2
00:12:52.063 : :Chapter 3
00:21:25.535 : :Chapter 4
00:27:20.389 : :Chapter 5
00:35:30.587 : :Chapter 6
00:40:07.030 : :Chapter 7
00:46:16.274 : :Chapter 8
00:52:22.431 : :Chapter 9
01:01:59.967 : :Chapter 10
01:07:59.659 : :Chapter 11
01:16:26.082 : :Chapter 12
01:22:08.424 : :Chapter 13
01:25:32.002 : :Chapter 14
01:30:22.793 : :Chapter 15
01:36:30.619 : :Chapter 16
01:40:29.357 : :Chapter 17
01:46:27.673 : :Chapter 18
01:53:05.571 : :Chapter 19
01:58:24.097 : :Chapter 20

Просьба к переливающим на другие сайты, в оформлении указывайте пожалуйста авторство группы R.G. HD-Films pb.wtf



Скачать Обливион через торрент https://b.radikal.ru/b27/1903/a6/8d478c9edd01.png Скачать, смотреть онлайн Обливион бесплантно в хорошем качестве Описание: Земля, пережившая войну с инопланетными захватчиками, опустела; остатки человечества готовятся покинуть непригодную для жизни ... 9.8 10 8
Торрент: Зарегистрирован [2021-08-16 11:50] · скачан: 121 раз
Статус: √ проверено
Размер: 5.55 GB
Как cкачать? Как скачать Обливион через торрент | UTorrent

28-11-2019 20:33  

Отключить всю рекламу на сайте

    Дорогой пользователь! Огромная просьба, поблагодарите релизера, оцените раздачу и оставьте свои комментарий, если Вы скачали Обливион через торрент бесплатно!
    Комментировать посты могут только пользователи прошедшие не сложную регистрацию
    Показать сообщения:    

    Обливион через торрент
    Скачать бесплатно Обливион
    Обливион скачать торрент
    Обливион смотреть онлайн
    Cкачать фильм Обливион бесплатно
    Обливион скачать торрент в хорошем качестве
    Обливион смотреть онлайн бесплатно в хорошем качестве


    Вы не можете начинать темы
    Вы не можете отвечать на сообщения
    Вы не можете редактировать свои сообщения
    Вы не можете удалять свои сообщения
    Вы не можете голосовать в опросах
    Вы не можете прикреплять файлы к сообщениям
    Вы можете скачивать файлы