Присоединяйтесь к нам в Telegram!, здесь всегда актуальный адрес сайта, оперативная поддержка и многое другое!!

>

5.9

iTunes

7.4

iTunes

9.4

1 сезон

1

7.4

2 сезон

7.2

iTunes

7.3

1 сезон

13

6.1

iTunes

8.3

GOG

30

ULTIMATE

pack

9.9

Лицензия

ВАЖНО

ИГРА 18+

pack

7.3

RePack

MK11

7.7

RePack

jed

7.8

RePack

fifa19

8.5

RePack

RDR2

RePack

NEED FOR SPEED™ PAYBACK

5 сезон

9 сезон

Бесстыжие 9 сезон

Все сериалы

все сериалы на PB.wtf

RePack

FAR CRY 5

Anonymous, добрый день, мы катастрофически не успеваем собрать деньги на оплату серверов, помогите нам пожалуйста 5,10,15р., для нас важна любая помощь . В качестве благодарности мы отключим Вам всю рекламу на сайте (укажите свой ник в строку Ваше имя)!

×
  
Magnet ссылка

CODA: Ребёнок глухих родителей / CODA (Сиан Хедер) [2021, драма, музыка, WEB-DLRip-AVC] DUB [Невафильм] от MediaBit pb.wtf

CODA: Ребёнок глухих родителей через торрент pb.wtf

Размер: 2.39 GB | Добавлен: 3 мес. 16 д. назад | Торрент скачан:40 раз
Смотреть онлайн CODA: Ребёнок глухих родителей | Скачать    Ребята, помогите собрать деньги на оплату серверов!!!

16-08-2021 14:41 CODA: Ребёнок глухих родителей Скачать торрент  


CODA: Ребёнок глухих родителей / CODA
Информация о фильме:
Название: CODA: Ребёнок глухих родителей
Оригинальное название: CODA
Год выхода: 2021
Жанр: драма, музыка
Режиссер: Сиан Хедер
В ролях: Эмилия Джонс, Марли Мэтлин, Трой Коцур, Дэниел Дюрант, Эухенио Дербес, Фердия Уолш-Пило, Кевин Чэпмэн, Джон Фиоре, Армен Гаро, Лонни Фармер, Эми Форсайт, Оуэн Бёрк, Мэрилин Баш, Эрика МакДермотт, Ребекка Гибел

Описание: Глостер, штат Массачусетс. Семья глухих ведет рыболовный бизнес. 17-летняя Руби — единственный слышащий член семьи — помогает глухим родителям и брату в рыбной ловле. В школе она присоединяется к местному хору, где понимает, что любит петь. Руководитель хора убеждает её подумать о музыкальной школе, и теперь девушка вынуждена выбирать между семьей и новой мечтой.



Страна: США, Франция
Студия: Pathé Films, Picture Perfect Federation, Vendome Pictures
Продолжительность:
Перевод: Дублированный - Невафильм



Информация о файле:
Кодек: AVC
Формат: MKV
Качество: WEB-DLRip-AVC
Видео: MPEG-4 AVC, 1024x554, 23.976 fps, 2175 kb/s
Аудио RU: AC3, 6 ch, 48 kHz, 448 kbps
Аудио EN: AC3, 6 ch, 48 kHz, 448 kbps
Субтитры: Русские (Forced, Full, SDH), английские (Forced, Full, SDH), немецкие, французкие, эстонские, латышские, литовские, украинские (Full, SDH)

x264 info: frame I:1242 Avg QP:14.11 size:111115
x264 info: frame P:37571 Avg QP:17.33 size: 26636
x264 info: frame B:121940 Avg QP:21.54 size: 5549
General
Unique ID : 67440553210452080668485561144740805633 (0x32BC93FDAAD0CF28EA0028D30BF1FC01)
Complete name : D:uTorrentРипы wolf1245CODA.2021.DUB.NevaFilm.WEB-DLRip-AVC.[wolf1245.MediaBit].mkv
Format : Matroska
Format version : Version 4
File size : 2.39 GiB
Duration : 1 h 51 min
Overall bit rate : 3 065 kb/s
Movie name : CODA.2021.DUB.NevaFilm.WEB-DLRip-AVC.[wolf1245.MediaBit]
Encoded date : UTC 2021-08-16 14:11:48
Writing application : mkvmerge v60.0.0 ('Are We Copies?') 64-bit
Writing library : libebml v1.4.2 + libmatroska v1.6.4
Video
ID : 1
Format : AVC
Format/Info : Advanced Video Codec
Format profile : High@L4.1
Format settings : CABAC / 14 Ref Frames
Format settings, CABAC : Yes
Format settings, Reference frames : 14 frames
Codec ID : V_MPEG4/ISO/AVC
Duration : 1 h 51 min
Bit rate : 2 175 kb/s
Width : 1 024 pixels
Height : 554 pixels
Display aspect ratio : 1.85:1
Frame rate mode : Constant
Frame rate : 23.976 (24000/1001) FPS
Color space : YUV
Chroma subsampling : 4:2:0
Bit depth : 8 bits
Scan type : Progressive
Bits/(Pixel*Frame) : 0.160
Stream size : 1.69 GiB (71%)
Title : -=[wolf1245.MediaBit]=-
Writing library : x264 core 157 r2958 57baac4
Encoding settings : cabac=1 / ref=14 / deblock=1:-3:-3 / analyse=0x3:0x133 / me=umh / subme=11 / psy=1 / psy_rd=1.00:0.10 / mixed_ref=1 / me_range=48 / chroma_me=1 / trellis=2 / 8x8dct=1 / cqm=0 / deadzone=21,11 / fast_pskip=1 / chroma_qp_offset=-3 / threads=10 / lookahead_threads=2 / sliced_threads=0 / nr=0 / decimate=1 / interlaced=0 / bluray_compat=0 / constrained_intra=0 / bframes=12 / b_pyramid=2 / b_adapt=2 / b_bias=0 / direct=3 / weightb=1 / open_gop=0 / weightp=2 / keyint=240 / keyint_min=24 / scenecut=40 / intra_refresh=0 / rc_lookahead=60 / rc=2pass / mbtree=1 / bitrate=2175 / ratetol=1.0 / qcomp=0.60 / qpmin=0 / qpmax=69 / qpstep=4 / cplxblur=20.0 / qblur=0.5 / vbv_maxrate=50000 / vbv_bufsize=62500 / nal_hrd=none / filler=0 / ip_ratio=1.40 / aq=1:0.80
Language : English
Default : Yes
Forced : No
Color range : Limited
Color primaries : BT.709
Transfer characteristics : BT.709
Matrix coefficients : BT.709
Audio #1
ID : 2
Format : AC-3
Format/Info : Audio Coding 3
Commercial name : Dolby Digital
Codec ID : A_AC3
Duration : 1 h 51 min
Bit rate mode : Constant
Bit rate : 448 kb/s
Channel(s) : 6 channels
Channel layout : L R C LFE Ls Rs
Sampling rate : 48.0 kHz
Frame rate : 31.250 FPS (1536 SPF)
Compression mode : Lossy
Stream size : 358 MiB (15%)
Title : DUB | Невафильм
Language : Russian
Service kind : Complete Main
Default : Yes
Forced : No
Audio #2
ID : 3
Format : AC-3
Format/Info : Audio Coding 3
Commercial name : Dolby Digital
Codec ID : A_AC3
Duration : 1 h 51 min
Bit rate mode : Constant
Bit rate : 448 kb/s
Channel(s) : 6 channels
Channel layout : L R C LFE Ls Rs
Sampling rate : 48.0 kHz
Frame rate : 31.250 FPS (1536 SPF)
Compression mode : Lossy
Stream size : 358 MiB (15%)
Title : Original
Language : English
Service kind : Complete Main
Default : No
Forced : No
Text #1
ID : 4
Format : UTF-8
Codec ID : S_TEXT/UTF8
Codec ID/Info : UTF-8 Plain Text
Duration : 1 h 50 min
Bit rate : 33 b/s
Count of elements : 607
Stream size : 27.0 KiB (0%)
Title : Forced
Language : Russian
Default : Yes
Forced : No
Text #2
ID : 5
Format : UTF-8
Codec ID : S_TEXT/UTF8
Codec ID/Info : UTF-8 Plain Text
Duration : 1 h 50 min
Bit rate : 67 b/s
Count of elements : 1246
Stream size : 54.9 KiB (0%)
Language : Russian
Default : No
Forced : No
Text #3
ID : 6
Format : UTF-8
Codec ID : S_TEXT/UTF8
Codec ID/Info : UTF-8 Plain Text
Duration : 1 h 44 min
Bit rate : 80 b/s
Count of elements : 1346
Stream size : 61.0 KiB (0%)
Title : SDH
Language : Russian
Default : No
Forced : No
Text #4
ID : 7
Format : UTF-8
Codec ID : S_TEXT/UTF8
Codec ID/Info : UTF-8 Plain Text
Duration : 1 h 39 min
Bit rate : 11 b/s
Count of elements : 355
Stream size : 8.16 KiB (0%)
Title : Forced
Language : English
Default : No
Forced : No
Text #5
ID : 8
Format : UTF-8
Codec ID : S_TEXT/UTF8
Codec ID/Info : UTF-8 Plain Text
Duration : 1 h 43 min
Bit rate : 47 b/s
Count of elements : 1407
Stream size : 36.1 KiB (0%)
Language : English
Default : No
Forced : No
Text #6
ID : 9
Format : UTF-8
Codec ID : S_TEXT/UTF8
Codec ID/Info : UTF-8 Plain Text
Duration : 1 h 43 min
Bit rate : 54 b/s
Count of elements : 1536
Stream size : 41.3 KiB (0%)
Title : SDH
Language : English
Default : No
Forced : No
Text #7
ID : 10
Format : UTF-8
Codec ID : S_TEXT/UTF8
Codec ID/Info : UTF-8 Plain Text
Duration : 1 h 50 min
Bit rate : 46 b/s
Count of elements : 1151
Stream size : 37.5 KiB (0%)
Language : German
Default : No
Forced : No
Text #8
ID : 11
Format : UTF-8
Codec ID : S_TEXT/UTF8
Codec ID/Info : UTF-8 Plain Text
Duration : 1 h 49 min
Bit rate : 40 b/s
Count of elements : 1187
Stream size : 32.4 KiB (0%)
Language : French
Default : No
Forced : No
Text #9
ID : 12
Format : UTF-8
Codec ID : S_TEXT/UTF8
Codec ID/Info : UTF-8 Plain Text
Duration : 1 h 50 min
Bit rate : 39 b/s
Count of elements : 1231
Stream size : 32.3 KiB (0%)
Language : Estonian
Default : No
Forced : No
Text #10
ID : 13
Format : UTF-8
Codec ID : S_TEXT/UTF8
Codec ID/Info : UTF-8 Plain Text
Duration : 1 h 50 min
Bit rate : 42 b/s
Count of elements : 1363
Stream size : 34.2 KiB (0%)
Language : Latvian
Default : No
Forced : No
Text #11
ID : 14
Format : UTF-8
Codec ID : S_TEXT/UTF8
Codec ID/Info : UTF-8 Plain Text
Duration : 1 h 50 min
Bit rate : 43 b/s
Count of elements : 1364
Stream size : 35.3 KiB (0%)
Language : Lithuanian
Default : No
Forced : No
Text #12
ID : 15
Format : UTF-8
Codec ID : S_TEXT/UTF8
Codec ID/Info : UTF-8 Plain Text
Duration : 1 h 50 min
Bit rate : 71 b/s
Count of elements : 1365
Stream size : 58.1 KiB (0%)
Language : Ukrainian
Default : No
Forced : No
Text #13
ID : 16
Format : UTF-8
Codec ID : S_TEXT/UTF8
Codec ID/Info : UTF-8 Plain Text
Duration : 1 h 50 min
Bit rate : 78 b/s
Count of elements : 1492
Stream size : 63.9 KiB (0%)
Title : SDH
Language : Ukrainian
Default : No
Forced : No
Релиз от: &
Автор релиза:
pb.wtf



Скачать CODA: Ребёнок глухих родителей через торрент https://i115.fastpic.org/big/2021/0816/34/1bacb99b3c6ee12267812d203f734d34.jpg Скачать, смотреть онлайн CODA: Ребёнок глухих родителей бесплантно в хорошем качестве Описание: Глостер, штат Массачусетс. Семья глухих ведет рыболовный бизнес. 17-летняя Руби — единственный слышащий член семьи — помогает ... 10 10 2
Торрент: Зарегистрирован [2021-08-16 14:41] · скачан: 40 раз
Статус: √ проверено
Размер: 2.39 GB
Как cкачать? Как скачать CODA: Ребёнок глухих родителей через торрент | UTorrent

28-11-2019 20:33  

Отключить всю рекламу на сайте

    Дорогой пользователь! Огромная просьба, поблагодарите релизера, оцените раздачу и оставьте свои комментарий, если Вы скачали CODA: Ребёнок глухих родителей через торрент бесплатно!
    Комментировать посты могут только пользователи прошедшие не сложную регистрацию
    Показать сообщения:    

    CODA: Ребёнок глухих родителей через торрент
    Скачать бесплатно CODA: Ребёнок глухих родителей
    CODA: Ребёнок глухих родителей скачать торрент
    CODA: Ребёнок глухих родителей смотреть онлайн
    Cкачать фильм CODA: Ребёнок глухих родителей бесплатно
    CODA: Ребёнок глухих родителей скачать торрент в хорошем качестве
    CODA: Ребёнок глухих родителей смотреть онлайн бесплатно в хорошем качестве


    Вы не можете начинать темы
    Вы не можете отвечать на сообщения
    Вы не можете редактировать свои сообщения
    Вы не можете удалять свои сообщения
    Вы не можете голосовать в опросах
    Вы не можете прикреплять файлы к сообщениям
    Вы можете скачивать файлы