Anonymous, добрый день, присоединяйтесь к нам в Telegram!, здесь всегда актуальный адрес сайта, оперативная поддержка и многое другое!

>

5.5

iTunes

7.4

iTunes

7.9

iTunes

1

7.7

1 сезон

6.8

iTunes

7.3

1 сезон

13

6.7

1 сезон

8.3

RePack

30

ULTIMATE

pack

9.9

Лицензия

ВАЖНО

ИГРА 18+

pack

7.3

RePack

MK11

7.7

RePack

jed

7.8

RePack

fifa19

8.5

RePack

RDR2

RePack

NEED FOR SPEED™ PAYBACK

4 сезон

9 сезон

Бесстыжие 9 сезон

Все сериалы

все сериалы на PB.wtf

RePack

FAR CRY 5

Anonymous, добрый день, мы катастрофически не успеваем собрать деньги на оплату серверов, помогите нам пожалуйста 5,10,15р., для нас важна любая помощь . В качестве благодарности мы отключим Вам всю рекламу на сайте (укажите свой ник в строку Ваше имя)!

×
  
Magnet ссылка

Маньячелло / Сезон: 1 / Серии: 1-8 из 8 (Жаргал Бадмацыренов) [2021, Комедия, WEBRip 1080p] pb.wtf

Маньячелло через торрент pb.wtf

Раздают: 4 [ 4 KB/s ] Качают: 2 [ 0 KB/s ]
Размер: 8.05 GB | Добавлен: 2 мес. 4 д. назад | Торрент скачан:123 раза
Смотреть онлайн Маньячелло | Скачать    Ребята, помогите собрать деньги на оплату серверов!!!

16-08-2021 17:35 Маньячелло Скачать торрент  

Маньячелло
Год выпуска: 2021
Страна: Россия
Выпущено: БайкалКино
Жанр: Комедия
Продолжительность: 00:23:20
Перевод: Не требуется
Субтитры: отсутствуют

Режиссер: Жаргал Бадмацыренов



В ролях: Владимир Барташевич, Ася Касьянова, Жаргал Бадмацыренов, Вадим Гусевский, Татьяна Нежельская, Владимир Ширапов, Алексей Клемашев, Сергей Гордейчук, Виктор Родионов (II)

Описание: История о вымышленном персонаже из деревни Сосновка, который очень любит классическую литературу. Настолько, что свои убийства он инсценирует по мотивам произведений Булгакова, Достоевского, Шекспира и других книжных классиков, но местные полицейские не могут этого понять. Они списывают убийства на заурядный криминал и мелкую бытовуху, чем ещё сильнее выводят из себя и без того нервного Тимофея...

Качество: WEBRip 1080p
Формат: MKV

Видео: MPEG-4 AVC, ~ 4500 Кбит/с, 1920х800
Аудио: 48.0 kHz, AC3 Dolby Digital, 2/0 (L,R) ch, ~ 192 kbps
скриншот  скриншот  скриншот  скриншот  

Общее
Уникальный идентификатор : 255665082485247591705289524634412710440 (0xC0574DC6718773329B0BB94848A8FA28)
Полное имя : D:Manyachello.2021.WEB-DL.1080p1.Manyachello.2021.WEB-DL.1080p.mkv
Формат : Matroska
Версия формата : Version 4
Размер файла : 902 Мбайт
Продолжительность : 27 м. 12 с.
Режим общего битрейта : Переменный
Общий поток : 4 637 Кбит/сек
Название фильма : 01.Manyachello.2021.WEB-DL.1080p
Дата кодирования : UTC 2021-08-16 17:31:18
Программа кодирования : mkvmerge v56.1.0 ('My Friend') 64-bit
Библиотека кодирования : libebml v1.4.2 + libmatroska v1.6.4
Attachments : poster.jpg

Видео
Идентификатор : 1
Формат : AVC
Формат/Информация : Advanced Video Codec
Профиль формата : High@L4
Настройки формата : CABAC / 1 Ref Frames
Параметр CABAC формата : Да
Параметр RefFrames формата : 1 кадр
Параметр GOP формата : M=1, N=50
Идентификатор кодека : V_MPEG4/ISO/AVC
Продолжительность : 27 м. 12 с.
Вид битрейта : Переменный
Битрейт : 4 441 Кбит/сек
Максимальный битрейт : 4 500 Кбит/сек
Ширина : 1 920 пикселей
Высота : 1 008 пикселей
Соотношение сторон : 1,897
Режим частоты кадров : Постоянный
Частота кадров : 25,000 кадров/сек
Цветовое пространство : YUV
Субдискретизация насыщенности : 4:2:0
Битовая глубина : 8 бит
Тип развёртки : Прогрессивная
Бит/(Пиксели*Кадры) : 0.092
Размер потока : 864 Мбайт (96%)
Default : Да
Forced : Нет

Аудио
Идентификатор : 2
Формат : AC-3
Формат/Информация : Audio Coding 3
Коммерческое название : Dolby Digital
Идентификатор кодека : A_AC3
Продолжительность : 27 м. 12 с.
Вид битрейта : Постоянный
Битрейт : 192 Кбит/сек
Каналы : 2 канала
Channel layout : L R
Частота : 48,0 КГц
Частота кадров : 31,250 кадров/сек (1536 SPF)
Метод сжатия : С потерями
Размер потока : 37,4 Мбайт (4%)
Service kind : Complete Main
Default : Да
Forced : Нет

Внимание! Раздача ведётся путём добавления новых серий; при каждом добавлении создаётся новый торрент.
Чтобы начать докачку новой серии, пользователям необходимо сделать следующее:
1. Остановить скачивание;
2. Удалить старый торрент у себя из клиента (старые серии удалять не надо);
3. Скачать новый торрент и запустить его у себя в клиенте вместо старого, при этом указать клиенту путь в старую папку куда и должно происходить скачивание новых серий. Ваш клиент при этом должен произвести хеширование (проверку) старой папки и будет докачивать только те серии, которых у вас ещё нет. Старые серии при этом не удаляются, а продолжают раздаваться! Eсли вы уже удалили старые серии, то предотвратить повторную закачку старых серий можно, отжав галочку в соответствующих местах при запуске нового торрента.

pb.wtf



Скачать Маньячелло через торрент https://b.radikal.ru/b15/2108/91/c1cf6134c602.jpg Скачать, смотреть онлайн Маньячелло бесплантно в хорошем качестве Описание: История о вымышленном персонаже из деревни Сосновка, который очень любит классическую литературу. Настолько, что свои убийства он ... 8 10 9
Торрент: Зарегистрирован [2021-08-19 19:56] · скачан: 123 раз
Статус: √ проверено
Размер: 8.05 GB
Как cкачать? Как скачать Маньячелло через торрент | UTorrent

% Раздел Тема Автор DL S | L
TNT serials [ 3.1 GB ] Маньячелло / Сезон: 1 / Серии: 1-8 из 8 [2021 WEBRip-AVC] bober100 Скачать
3 | 0
TNT serials [ 3.1 GB ] Маньячелло / Сезон: 1 / Серии: 1-8 из 8 [2021 WEBRip] bober100 Скачать
13 | 3
TNT serials [ 5.47 GB ] Маньячелло / Сезон: 1 / Серии: 1-8 из 8 [2021 WEBRip 720p] bober100 Скачать
5 | 0
TNT serials [ 2.47 GB ] Маньячелло / Сезон: 1 / Серии: 1-8 из 8 [2021 SATRip] bober100 Скачать
2 | 0


Последний раз редактировалось: bober100 (2021-08-19 19:56), всего редактировалось 2 раз(а)

28-11-2019 20:33  

Отключить всю рекламу на сайте

17-08-2021 21:17 Маньячелло Скачать торрент  

Дожили, про маньяков теперь комедии снимают. Вторую серию не досмотрел - муть галимая.pb.wtf



17-08-2021 23:32 Маньячелло Скачать торрент  

лаптестан совсем уже одибилился pb.wtf



09-10-2021 14:23 Маньячелло Скачать торрент  

В чью больную голову пришел этот бред? Мерзость и отвращение, и рожи отвратные, не обезображенные интеллектом. Фуууууу!pb.wtf



    Дорогой пользователь! Огромная просьба, поблагодарите релизера, оцените раздачу и оставьте свои комментарий, если Вы скачали Маньячелло через торрент бесплатно!
    Комментировать посты могут только пользователи прошедшие не сложную регистрацию
    Показать сообщения:    

    Маньячелло через торрент
    Скачать бесплатно Маньячелло
    Маньячелло скачать торрент
    Маньячелло смотреть онлайн
    Cкачать фильм Маньячелло бесплатно
    Маньячелло скачать торрент в хорошем качестве
    Маньячелло смотреть онлайн бесплатно в хорошем качестве


    Вы не можете начинать темы
    Вы не можете отвечать на сообщения
    Вы не можете редактировать свои сообщения
    Вы не можете удалять свои сообщения
    Вы не можете голосовать в опросах
    Вы не можете прикреплять файлы к сообщениям
    Вы можете скачивать файлы