Достать ножи: Стеклянная луковица

MVO

Добыча

Дубляж

Уэнсдэй

1 сезон

Тор

Дубляж

13 клиническая

1 сезон

Жестокая ночь

MVO

Одни из нас

1 сезон

Deluxe

pack

Рекомендуем

30

Пиратка

ВАЖНО

ВАЖНО

Ghostwire

Пиратка

jed

RePack

nioh2

RePack

RDR2

RePack

NEED FOR SPEED™ PAYBACK

RePack

скачать торрент

Кинопоиск HD

Острые козырьки 6 сезон

6 сезон

FAR CRY 6

RePack

скачать торрент

Лицензия

скачать торрент

MVO

1

1 сезон

скачать торрент

1 сезон

скачать торрент

Лицензия

  

Влюбленный Ван Гог / Van Gogh in Love (Жан Люк Аяш) [2021 г., комедия, WEB-DLRip, Профессиональный многоголосый закадровый "iTunes"]

Влюбленный Ван Гог через торрент pb.wtf

Размер: 713 MB | Добавлен: 1 год 5 мес. назад | Торрент скачан:10 раз
Смотреть онлайн | Скачать | Поддержите нас   

16-08-2021 18:13 Влюбленный Ван Гог Скачать торрент  

Влюбленный Ван Гог / Van Gogh in Love
Год выпуска: 2021
Страна: Франция / Mica Films,La Région Île-de-France
Жанр: комедия
Продолжительность: 01:38:11
Перевод: Профессиональный многоголосый закадровый (iTunes)

Режиссер: Жан Люк Аяш

rating

В ролях: Фредерик Дифенталь, Анда Коджа, Стив Дрисен, Мари Борг, Джинни Уотсон, Арсен Жироян, Клод Барро, Эдвин Крюгер, Анжи Жако, Жан Люк Аяш

Описание: «Подлинная любовь вселяет отвращение к искусству». Для Лео Мадзотти, чья карьера художника не складывается, эта фраза Ван Гога — отличный повод расстаться с влюбленной в него Элизой. Десять лет спустя в лучах мировой славы он возвращается во Францию с женой-миллионершей, хозяйкой модной нью-йоркской галереи. Накануне открытия персональной выставки он встречает свою бывшую возлюбленную и… Ван Гога. Легендарный художник сошел с автопортрета, чтобы жениться на Элизе, заняться воспитанием детей и больше никогда не заниматься живописью…

Качество: WEB-DLRip
Формат: AVI
Видео кодек: DivX
Аудио кодек: MP3
Видео: 640x272 (2.35:1), 24.000 fps, DivX Codec 4.x ~877 kbps avg, 0.21 bit/pixel
Аудио: 48 kHz, MPEG Layer 3, 2 ch, ~128.00 kbps avg

Общее
Полное имя : G:\ФИЛЬМЫ\Влюбленный Ван Гог.2021.WEB-DLRip.avi
Формат : AVI
Формат/Информация : Audio Video Interleave
Размер файла : 713 Мбайт
Продолжительность : 1 ч. 38 м.
Общий поток : 1 015 Кбит/сек
Программа кодирования : VirtualDubMod 1.5.10.3 | www.virtualdub-fr.org || (build 2550/release)
Библиотека кодирования : VirtualDubMod build 2550/release

Видео
Идентификатор : 0
Формат : MPEG-4 Visual
Профиль формата : Advanced [email protected]
Настройки формата : BVOP2
Параметр BVOP формата : 2
Параметр QPel формата : Нет
Параметр GMC формата : Без точки перехода
Параметр матрицы формата : Default (MPEG)
Идентификатор кодека : DIVX
Идентификатор кодека/Информация : Project Mayo
Идентификатор кодека/Подсказка : DivX 4
Продолжительность : 1 ч. 38 м.
Битрейт : 878 Кбит/сек
Ширина : 640 пикселей
Высота : 272 пикселя
Соотношение сторон : 2,35:1
Частота кадров : 24,000 кадра/сек
Цветовое пространство : YUV
Субдискретизация насыщенности : 4:2:0
Битовая глубина : 8 бит
Тип развёртки : Прогрессивная
Метод сжатия : С потерями
Бит/(Пиксели*Кадры) : 0.210
Размер потока : 617 Мбайт (86%)
Библиотека кодирования : XviD 1.2.1 (UTC 2008-12-04)

Аудио
Идентификатор : 1
Формат : MPEG Audio
Версия формата : Version 1
Профиль формата : Layer 3
Настройки формата : Joint stereo / MS Stereo
Идентификатор кодека : 55
Идентификатор кодека/Подсказка : MP3
Продолжительность : 1 ч. 38 м.
Вид битрейта : Постоянный
Битрейт : 128 Кбит/сек
Каналы : 2 канала
Частота : 48,0 КГц
Частота кадров : 41,667 кадра/сек (1152 SPF)
Метод сжатия : С потерями
Размер потока : 89,9 Мбайт (13%)
Выравнивание : Соединение по промежуткам
Продолжительность промежутка : 42 мс. (1,00 видеокадр)
Время предзагрузки промежутка : 504 мс.
Библиотека кодирования : LAME3.99r
Настройки программы : -m j -V 4 -q 2 -lowpass 17 -b 128

Report created by : MediaInfoLib - v21.03
Report created on : UTC 2021-08-16 17:53:20




Скачать Влюбленный Ван Гог через торрент https://pic1.kartinco.top/new/img/2021-08/16/qabzdmg21she9svr56ayocgef.jpg Скачать, смотреть онлайн Влюбленный Ван Гог бесплантно в хорошем качестве Описание: «Подлинная любовь вселяет отвращение к искусству». Для Лео Мадзотти, чья карьера художника не складывается, эта фраза Ван Гога — ... 5 10 1
Торрент: Зарегистрирован [2021-08-16 18:13] · скачан: 10 раз
Статус: √ проверено
Размер: 713 MB
Как cкачать? Как скачать Влюбленный Ван Гог через торрент | UTorrent

% Раздел Тема Автор DL S | L
Фильмы 2021 [DVDrip, WEB-DLRip, HDrip] (DUB, MVO) [ 1.46 GB ] Влюбленный Ван Гог / Van Gogh in Love | iTunes | DLRip bober100 Скачать
1 | 0

28-11-2019 20:33  


Отключить вcю реклaмy на сайте, в т.ч. и в плеере онлайн просмотра!

    Дорогой пользователь! Огромная просьба, поблагодарите релизера, оцените раздачу и оставьте свои комментарий, если Вы скачали Влюбленный Ван Гог через торрент бесплатно!!
    Комментировать посты могут только пользователи прошедшие не сложную регистрацию
    Показать сообщения:    


    Влюбленный Ван Гог через торрент
    Скачать бесплатно Влюбленный Ван Гог
    Влюбленный Ван Гог скачать торрент
    Влюбленный Ван Гог смотреть онлайн
    Cкачать фильм Влюбленный Ван Гог бесплатно
    Влюбленный Ван Гог скачать торрент в хорошем качестве
    Влюбленный Ван Гог смотреть онлайн бесплатно в хорошем качестве
    Вы не можете начинать темы
    Вы не можете отвечать на сообщения
    Вы не можете редактировать свои сообщения
    Вы не можете удалять свои сообщения
    Вы не можете голосовать в опросах
    Вы не можете прикреплять файлы к сообщениям
    Вы можете скачивать файлы
    Влюбленный Ван Гог / Van Gogh in Love [2021 г., комедия, WEB-DLRip, Профессиональный многоголосый закадровый "iTunes"] смотреть онлайн, скачать торрент picoco.icu