Anonymous, добрый день, присоединяйтесь к нам в Telegram!, здесь всегда актуальный адрес сайта, оперативная поддержка и многое другое!

>

5.6

iTunes

7.4

iTunes

5.7

MVO

1

7.7

1 сезон

6.8

iTunes

7.3

1 сезон

13

6.7

1 сезон

8.3

RePack

30

ULTIMATE

pack

9.9

Лицензия

ВАЖНО

ИГРА 18+

pack

7.3

RePack

MK11

7.7

RePack

jed

7.8

RePack

fifa19

8.5

RePack

RDR2

RePack

NEED FOR SPEED™ PAYBACK

4 сезон

9 сезон

Бесстыжие 9 сезон

Все сериалы

все сериалы на PB.wtf

RePack

FAR CRY 5

Anonymous, добрый день, мы катастрофически не успеваем собрать деньги на оплату серверов, помогите нам пожалуйста 5,10,15р., для нас важна любая помощь . В качестве благодарности мы отключим Вам всю рекламу на сайте (укажите свой ник в строку Ваше имя)!

×
  
Magnet ссылка

Маньячелло / Сезон: 1 / Серии: 1-8 из 8 (Жаргал Бадмацыренов) [2021, Комедия, WEBRip] pb.wtf

Маньячелло через торрент pb.wtf

Раздают: 8 [ 46 KB/s ] Качают: 6 [ 0 KB/s ]
Размер: 3.1 GB | Добавлен: 1 мес. 27 д. назад | Торрент скачан:94 раза
Смотреть онлайн Маньячелло | Скачать    Ребята, помогите собрать деньги на оплату серверов!!!

16-08-2021 18:17 Маньячелло Скачать торрент  

Маньячелло
Год выпуска: 2021
Страна: Россия
Выпущено: БайкалКино
Жанр: Комедия
Продолжительность: 00:23:20
Перевод: Не требуется
Субтитры: отсутствуют

Режиссер: Жаргал Бадмацыренов



В ролях: Владимир Барташевич, Ася Касьянова, Жаргал Бадмацыренов, Вадим Гусевский, Татьяна Нежельская, Владимир Ширапов, Алексей Клемашев, Сергей Гордейчук, Виктор Родионов (II)

Описание: История о вымышленном персонаже из деревни Сосновка, который очень любит классическую литературу. Настолько, что свои убийства он инсценирует по мотивам произведений Булгакова, Достоевского, Шекспира и других книжных классиков, но местные полицейские не могут этого понять. Они списывают убийства на заурядный криминал и мелкую бытовуху, чем ещё сильнее выводят из себя и без того нервного Тимофея...

Качество: WEBRip
Формат: AVI

Видео: XviD, ~ 1600 Кбит/с, 720x384, 25 кадр/с
Аудио: 48.0 kHz, AC3 Dolby Digital, 2/0 (L,R) ch, ~ 192 kbps
скриншот  скриншот  скриншот  скриншот  

General
Complete name : H:\Маньячелло.(2021).WEBRip.Files-x\02.Manyachello.(2021).WEB-DLRip.by.Серый1779.Files-x.avi
Format : AVI
Format/Info : Audio Video Interleave
File size : 379 MiB
Duration : 29mn 33s
Overall bit rate : 1 795 Kbps
Writing application : VirtualDubMod 1.5.10.3 | www.virtualdub-fr.org || (build 2550/release)
Writing library : VirtualDubMod build 2550/release

Video
ID : 0
Format : MPEG-4 Visual
Format profile : Advanced Simple@L5
Format settings, BVOP : 1
Format settings, QPel : No
Format settings, GMC : No warppoints
Format settings, Matrix : Custom
Codec ID : XVID
Codec ID/Hint : XviD
Duration : 29mn 33s
Bit rate : 1 593 Kbps
Width : 720 pixels
Height : 384 pixels
Display aspect ratio : 1.875
Frame rate : 25.000 fps
Color space : YUV
Chroma subsampling : 4:2:0
Bit depth : 8 bits
Scan type : Progressive
Compression mode : Lossy
Bits/(Pixel*Frame) : 0.231
Stream size : 337 MiB (89%)
Writing library : XviD 73

Audio
ID : 1
Format : AC-3
Format/Info : Audio Coding 3
Mode extension : CM (complete main)
Codec ID : 2000
Duration : 29mn 33s
Bit rate mode : Constant
Bit rate : 192 Kbps
Channel(s) : 2 channels
Channel positions : Front: L R
Sampling rate : 48.0 KHz
Bit depth : 16 bits
Compression mode : Lossy
Stream size : 40.6 MiB (11%)
Alignment : Split accross interleaves
Interleave, duration : 40 ms (1.00 video frame)
Interleave, preload duration : 500 ms

Внимание! Раздача ведётся путём добавления новых серий; при каждом добавлении создаётся новый торрент.
Чтобы начать докачку новой серии, пользователям необходимо сделать следующее:
1. Остановить скачивание;
2. Удалить старый торрент у себя из клиента (старые серии удалять не надо);
3. Скачать новый торрент и запустить его у себя в клиенте вместо старого, при этом указать клиенту путь в старую папку куда и должно происходить скачивание новых серий. Ваш клиент при этом должен произвести хеширование (проверку) старой папки и будет докачивать только те серии, которых у вас ещё нет. Старые серии при этом не удаляются, а продолжают раздаваться! Eсли вы уже удалили старые серии, то предотвратить повторную закачку старых серий можно, отжав галочку в соответствующих местах при запуске нового торрента.

pb.wtf



Скачать Маньячелло через торрент https://b.radikal.ru/b15/2108/91/c1cf6134c602.jpg Скачать, смотреть онлайн Маньячелло бесплантно в хорошем качестве Описание: История о вымышленном персонаже из деревни Сосновка, который очень любит классическую литературу. Настолько, что свои убийства он ... 7.8 10 8
Торрент: Зарегистрирован [2021-08-19 20:38] · скачан: 94 раз
Статус: √ проверено
Размер: 3.1 GB
Как cкачать? Как скачать Маньячелло через торрент | UTorrent

% Раздел Тема Автор DL S | L
TNT serials [ 8.05 GB ] Маньячелло / Сезон: 1 / Серии: 1-8 из 8 [2021 WEBRip 1080p] bober100 Скачать
4 | 0
TNT serials [ 3.1 GB ] Маньячелло / Сезон: 1 / Серии: 1-8 из 8 [2021 WEBRip-AVC] bober100 Скачать
4 | 0
TNT serials [ 5.47 GB ] Маньячелло / Сезон: 1 / Серии: 1-8 из 8 [2021 WEBRip 720p] bober100 Скачать
3 | 0
TNT serials [ 2.47 GB ] Маньячелло / Сезон: 1 / Серии: 1-8 из 8 [2021 SATRip] bober100 Скачать
4 | 0


Последний раз редактировалось: bober100 (2021-08-19 20:38), всего редактировалось 4 раз(а)

28-11-2019 20:33  

Отключить всю рекламу на сайте

17-08-2021 14:04 Маньячелло Скачать торрент  

смотреть можно или не надо?pb.wtf



18-08-2021 09:33 Маньячелло Скачать торрент  

Самбайна ёптpb.wtf



18-08-2021 16:25 Маньячелло Скачать торрент  

Антонн писал(а):

смотреть можно или не надо?

Можно. Стокгольмский синдром, это чудо.pb.wtf



    Дорогой пользователь! Огромная просьба, поблагодарите релизера, оцените раздачу и оставьте свои комментарий, если Вы скачали Маньячелло через торрент бесплатно!
    Комментировать посты могут только пользователи прошедшие не сложную регистрацию
    Показать сообщения:    

    Маньячелло через торрент
    Скачать бесплатно Маньячелло
    Маньячелло скачать торрент
    Маньячелло смотреть онлайн
    Cкачать фильм Маньячелло бесплатно
    Маньячелло скачать торрент в хорошем качестве
    Маньячелло смотреть онлайн бесплатно в хорошем качестве


    Вы не можете начинать темы
    Вы не можете отвечать на сообщения
    Вы не можете редактировать свои сообщения
    Вы не можете удалять свои сообщения
    Вы не можете голосовать в опросах
    Вы не можете прикреплять файлы к сообщениям
    Вы можете скачивать файлы