Anonymous, доброе утро, присоединяйтесь к нам в Telegram!, здесь всегда актуальный адрес сайта, оперативная поддержка и многое другое!

>

5.6

iTunes

7.4

iTunes

5.7

MVO

1

7.7

1 сезон

6.8

iTunes

7.3

1 сезон

13

6.7

1 сезон

8.3

RePack

30

ULTIMATE

pack

9.9

Лицензия

ВАЖНО

ИГРА 18+

pack

7.3

RePack

MK11

7.7

RePack

jed

7.8

RePack

fifa19

8.5

RePack

RDR2

RePack

NEED FOR SPEED™ PAYBACK

4 сезон

9 сезон

Бесстыжие 9 сезон

Все сериалы

все сериалы на PB.wtf

RePack

FAR CRY 5

Anonymous, доброе утро, мы катастрофически не успеваем собрать деньги на оплату серверов, помогите нам пожалуйста 5,10,15р., для нас важна любая помощь . В качестве благодарности мы отключим Вам всю рекламу на сайте (укажите свой ник в строку Ваше имя)!

×
  
Magnet ссылка

Короче / Сезон: 2 / Серии: 1-14 из 14 (Илья Фарфель) [2021, Комедия, WEBRip] pb.wtf

Короче через торрент pb.wtf

Раздают: 2 [ 0 KB/s ]
Размер: 4.01 GB | Добавлен: 1 мес. 12 д. назад | Торрент скачан:37 раз
Смотреть онлайн Короче | Скачать    Ребята, помогите собрать деньги на оплату серверов!!!

17-08-2021 04:20 Короче Скачать торрент  

Короче Год выпуска: 2021
Страна: Россия
Студия: СУПЕР продакшн, Киностудия «Yellow, Black and White»
Жанр: Комедия
Продолжительность: ~ 00:25:00
Перевод: Не требуется
Субтитры: отсутствуют

Режиссер: Илья Фарфель

rating

В ролях: Борис Дергачев, Марина Васильева, Александра Кузенкина, Дария Гомес, Александр Якин, Марина Богатова, Александр Потапов, Константин Шелягин, Денис Шаблий, Наталья Торсунова

Описание: Комедийные скетчи повествуют о том, что волнует обычного тридцатилетнего парня. Девушки, работа, друзья, бытовые мелочи, проблемы вселенского масштаба и многое-многое другое, о чем мужчины предпочитают молчать.

Качество: WEBRip
Формат: AVI

Видео: XviD, ~ 1600 Кбит/с, 720x400, 25 кадр/с
Аудио: 48.0 kHz, AC3 Dolby Digital, 2/0 (L,R) ch, ~ 192 kbps
скриншот  скриншот  скриншот  скриншот  

General
Complete name : H:\fiiles x\Короче..s02..2021.WEB-DLRip.Files-x\04. Короче..s02..2021.WEB-DLRip.Files-x.avi
Format : AVI
Format/Info : Audio Video Interleave
File size : 306 MiB
Duration : 23mn 54s
Overall bit rate : 1 791 Kbps
Writing application : VirtualDubMod 1.5.10.3 | www.virtualdub-fr.org || (build 2550/release)
Writing library : VirtualDubMod build 2550/release

Video
ID : 0
Format : MPEG-4 Visual
Format profile : Advanced Simple@L5
Format settings, BVOP : 1
Format settings, QPel : No
Format settings, GMC : No warppoints
Format settings, Matrix : Custom
Codec ID : XVID
Codec ID/Hint : XviD
Duration : 23mn 54s
Bit rate : 1 589 Kbps
Width : 720 pixels
Height : 400 pixels
Display aspect ratio : 16:9
Frame rate : 25.000 fps
Color space : YUV
Chroma subsampling : 4:2:0
Bit depth : 8 bits
Scan type : Progressive
Compression mode : Lossy
Bits/(Pixel*Frame) : 0.221
Stream size : 272 MiB (89%)
Writing library : XviD 73

Audio
ID : 1
Format : AC-3
Format/Info : Audio Coding 3
Mode extension : CM (complete main)
Codec ID : 2000
Duration : 23mn 54s
Bit rate mode : Constant
Bit rate : 192 Kbps
Channel(s) : 2 channels
Channel positions : Front: L R
Sampling rate : 48.0 KHz
Bit depth : 16 bits
Compression mode : Lossy
Stream size : 32.8 MiB (11%)
Alignment : Split accross interleaves
Interleave, duration : 40 ms (1.00 video frame)
Interleave, preload duration : 500 ms

Внимание! Раздача ведётся путём добавления новых серий; при каждом добавлении создаётся новый торрент. Чтобы начать докачку новой серии,пользователям необходимо сделать следующее:
(1) остановить скачивание,
(2) удалить старый торрент у себя из клиента (старые серии удалять не надо),
(3) скачать новый торрент и запустить его у себя в клиенте вместо старого, при этом указать клиенту путь в старую папку куда и должнопроисходить скачивание новых серий.
pb.wtf



Скачать Короче через торрент https://c.radikal.ru/c00/2108/c5/b4167be29601.jpg Скачать, смотреть онлайн Короче бесплантно в хорошем качестве Описание: Комедийные скетчи повествуют о том, что волнует обычного тридцатилетнего парня. Девушки, работа, друзья, бытовые мелочи, проблемы ... 10 10 10
Торрент: Зарегистрирован [2021-09-03 15:58] · скачан: 37 раз
Статус: √ проверено
Размер: 4.01 GB
Как cкачать? Как скачать Короче через торрент | UTorrent

% Раздел Тема Автор DL S | L
Наши сериалы [ 14.82 GB ] Короче / Сезон: 2 / Серии: 1-14 из 14 [2021 WEBRip 1080p] bober100 Скачать
1 | 1
Наши сериалы [ 4.01 GB ] Короче / Сезон: 2 / Серии: 1-14 из 14 [2021 WEBRip-AVC] bober100 Скачать
2 | 0
Наши сериалы [ 7.1 GB ] Короче / Сезон: 2 / Серии: 1-14 из 14 [2021 WEBRip 720p] bober100 Скачать
2 | 0

28-11-2019 20:33  

Отключить всю рекламу на сайте

    Дорогой пользователь! Огромная просьба, поблагодарите релизера, оцените раздачу и оставьте свои комментарий, если Вы скачали Короче через торрент бесплатно!
    Комментировать посты могут только пользователи прошедшие не сложную регистрацию
    Показать сообщения:    

    Короче через торрент
    Скачать бесплатно Короче
    Короче скачать торрент
    Короче смотреть онлайн
    Cкачать фильм Короче бесплатно
    Короче скачать торрент в хорошем качестве
    Короче смотреть онлайн бесплатно в хорошем качестве


    Вы не можете начинать темы
    Вы не можете отвечать на сообщения
    Вы не можете редактировать свои сообщения
    Вы не можете удалять свои сообщения
    Вы не можете голосовать в опросах
    Вы не можете прикреплять файлы к сообщениям
    Вы можете скачивать файлы