Всегда рабочее зеркало без VPN и Proxy просто перед .vidak.icu напиши любое слово или цифру, Пример http://6jgx.vidak.icu

iTunes

2 сезон

1 сезон

1

1 сезон

iTunes

2 сезон

13

1 сезон

Deluxe

pack

Рекомендуем

Пиратка

30

ВАЖНО

RePack

MK11

RePack

jed

RePack

fifa19

RePack

RDR2

RePack

NEED FOR SPEED™ PAYBACK

Кинопоиск HD

6 сезон

 Острые козырьки 6 сезон

Все сериалы

все сериалы на PB.wtf

RePack

FAR CRY 5

Anonymous, нам критически не хватает 5601 руб. на оплату серверов и переферии за Апрель, помоги нам пожалуйста, вся надежда только на тебя. В благодарность мы отключим тебе всю рекламу на сайте!

×
  
Magnet ссылка

Только ты / Only You (Норман Джуисон) [1994, мелодрама, комедия, WEB-DL 720p] [Dub] (TV1000 Comedy HD) + [MVO] + [AVO] (А.Гаврилов) + [Ukr DVO] pb.wtf

Только ты через торрент pb.wtf

Раздают: 1 [ 0 KB/s ]
Размер: 3.86 GB | Добавлен: 3 мес. 12 д. назад | Торрент скачан:20 раз
Смотреть онлайн Только ты | Скачать    Ребята, помогите собрать деньги на оплату серверов!!!

17-08-2021 11:19 Только ты Скачать торрент  

Только ты / Only You
Год выпуска: 1994
Страна: США, Италия
Жанр: мелодрама, комедия
Продолжительность: 01:48:29
Перевод: Профессиональный (дублированный)*TV1000 Comedy HD
Перевод: Профессиональный (многоголосый)
Перевод: Авторский (одноголосый закадровый) Андрей Гаврилов
Перевод: Профессиональный (двухголосый) - Украинский
Cубтитры: ukr, eng

Режиссер: Норман Джуисон

В ролях: Мариса Томей, Роберт Дауни мл., Бонни Хант, Жоаким ди Алмейда, Фишер Стивенс, Билли Зейн, Адам ЛеФевр, Джон Бенжамин Хикки, Шаван Фэллон, Антония Рей

Описание: Школьная учительница Фэйт Корвач знала точно, что имя ее нареченного — Дэймон Брэдли. Ей это предсказала цыганка 14 лет назад. Но время шло, а суженный на горизонте все не появлялся, и Фэйт обручилась с ортопедом.
И именно в это время, как гром среди ясного неба, раздался телефонный звонок от друга ее жениха, направляющегося в Венецию. Он назвался Дэймоном Брэдли. Фэйт, не долго думая, бросила все и помчалась в аэропорт, догонять свое улетевшее в Италию счастье…

rating

Качество видео: WEB-DL 720p
Формат видео: MKV
Видео кодек: x.264
Аудио кодек: AC3
Видео: AVC, 1278x720, ~ 3813 Kbps, 23.976 fps
Аудио #1: 48 kHz, AC3 Dolby Digital, 2 ch, ~192 kbps - DUB *TV1000 Comedy HD
Аудио #2: 48 kHz, AC3 Dolby Digital, 2 ch, ~192 kbps - Андрей Гаврилов
Аудио #3: 48 kHz, AC3 Dolby Digital, 2 ch, ~224 kbps - MVO
Аудио #4: 48 kHz, AC3 Dolby Digital, 2 ch, ~192 kbps - Ukr DVO
Аудио #5: 48 kHz, AC3 Dolby Digital, 6 ch, ~384 kbps - Eng
скриншот   скриншот   скриншот   скриншот   скриншот   скриншот   скриншот   скриншот   скриншот   скриншот   скриншот  
General
Unique ID : 240009707894537201873258877165153785324 (0xB4903036E77C8659ABCA45DC461795EC)
Complete name : F:\Only You (1994).WEB-DL 720p.[DUB], [MVO], [AVO], [Ukr DVO].xz.mkv
Format : Matroska
Format version : Version 4 / Version 2
File size : 3.86 GiB
Duration : 1h 48mn
Overall bit rate : 5 099 Kbps
Movie name : Only You (1994).WEB-DL 720p.[DUB], [MVO], [AVO], [Ukr DVO].xz
Encoded date : UTC 2021-08-17 10:49:11
Writing application : mkvmerge v6.1.0 ('Old Devil') built on Mar 2 2013 14:32:37
Writing library : libebml v1.3.0 + libmatroska v1.4.0

Video
ID : 1
Format : AVC
Format/Info : Advanced Video Codec
Format profile : High@L3.1
Format settings, CABAC : No
Format settings, ReFrames : 2 frames
Codec ID : V_MPEG4/ISO/AVC
Duration : 1h 48mn
Bit rate : 3 813 Kbps
Width : 1 278 pixels
Height : 720 pixels
Display aspect ratio : 16:9
Frame rate mode : Constant
Frame rate : 23.976 fps
Color space : YUV
Chroma subsampling : 4:2:0
Bit depth : 8 bits
Scan type : Progressive
Bits/(Pixel*Frame) : 0.173
Stream size : 2.89 GiB (75%)
Title : Only You (1994).WEB-DL 720p.[DUB], [MVO], [AVO], [Ukr DVO].xz
Language : English
Default : No
Forced : No
Color range : Limited
Color primaries : BT.709
Transfer characteristics : BT.709
Matrix coefficients : BT.709

Audio #1
ID : 2
Format : AC-3
Format/Info : Audio Coding 3
Mode extension : CM (complete main)
Format settings, Endianness : Big
Codec ID : A_AC3
Duration : 1h 48mn
Bit rate mode : Constant
Bit rate : 192 Kbps
Channel(s) : 2 channels
Channel positions : Front: L R
Sampling rate : 48.0 KHz
Compression mode : Lossy
Stream size : 149 MiB (4%)
Title : DUB_TV 1000
Language : Russian
Default : Yes
Forced : No

Audio #2
ID : 3
Format : AC-3
Format/Info : Audio Coding 3
Mode extension : CM (complete main)
Format settings, Endianness : Big
Codec ID : A_AC3
Duration : 1h 48mn
Bit rate mode : Constant
Bit rate : 224 Kbps
Channel(s) : 2 channels
Channel positions : Front: L R
Sampling rate : 48.0 KHz
Compression mode : Lossy
Stream size : 174 MiB (4%)
Title : MVO
Language : Russian
Default : No
Forced : No

Audio #3
ID : 4
Format : AC-3
Format/Info : Audio Coding 3
Mode extension : CM (complete main)
Format settings, Endianness : Big
Codec ID : A_AC3
Duration : 1h 48mn
Bit rate mode : Constant
Bit rate : 192 Kbps
Channel(s) : 2 channels
Channel positions : Front: L R
Sampling rate : 48.0 KHz
Compression mode : Lossy
Stream size : 149 MiB (4%)
Title : AVO_Gavrilov
Language : Russian
Default : No
Forced : No

Audio #4
ID : 5
Format : AC-3
Format/Info : Audio Coding 3
Mode extension : CM (complete main)
Format settings, Endianness : Big
Codec ID : A_AC3
Duration : 1h 48mn
Bit rate mode : Constant
Bit rate : 192 Kbps
Channel(s) : 2 channels
Channel positions : Front: L R
Sampling rate : 48.0 KHz
Compression mode : Lossy
Stream size : 149 MiB (4%)
Title : Ukr DVO_1+1
Language : Ukrainian
Default : No
Forced : No

Audio #5
ID : 6
Format : AC-3
Format/Info : Audio Coding 3
Mode extension : CM (complete main)
Format settings, Endianness : Big
Codec ID : A_AC3
Duration : 1h 48mn
Bit rate mode : Constant
Bit rate : 384 Kbps
Channel(s) : 6 channels
Channel positions : Front: L C R, Side: L R, LFE
Sampling rate : 48.0 KHz
Compression mode : Lossy
Stream size : 298 MiB (8%)
Title : Eng
Language : English
Default : No
Forced : No

Text #1
ID : 7
Format : UTF-8
Codec ID : S_TEXT/UTF8
Codec ID/Info : UTF-8 Plain Text
Title : Eng
Language : English
Default : No
Forced : No

Text #2
ID : 8
Format : UTF-8
Codec ID : S_TEXT/UTF8
Codec ID/Info : UTF-8 Plain Text
Title : ukr
Language : Ukrainian
Default : No
Forced : No

Menu
00:00:00.000 : en:Start.
00:04:07.000 : en:Gypsy Prophesy.
00:05:37.000 : en:14 Years Later.
00:11:47.000 : en:Engagement Party.
00:17:11.000 : en:Damon Bradley Calls.
00:26:19.000 : en:Hotel Danieli.
00:31:48.000 : en:Lost.
00:36:38.000 : en:Roma.
00:39:59.000 : en:The Pensione.
00:41:34.000 : en:Piazza Santa Maria.
00:43:56.000 : en:In Pursuit Of Damon.
00:45:57.000 : en:Shoe Return.
00:47:56.000 : en:"I'm Damon Bradley".
00:48:54.000 : en:Romantic Walk & Poem.
00:52:22.000 : en:Bocca Della Verita.
01:00:11.000 : en:Long-Distance Call.
01:04:34.000 : en:Giovanni Returns.
01:06:22.000 : en:The Shoe Show.
01:09:37.000 : en:Pensione Garden.
01:13:32.000 : en:Positano.
01:15:04.000 : en:Hotel Le Sirenuse.
01:16:08.000 : en:At The Pool.
01:21:01.000 : en:Faith's Room.
01:24:58.000 : en:Dinner With Damon.
01:28:27.000 : en:On The Yacht.
01:32:38.000 : en:Stars & Moon.
01:34:14.000 : en:Wedding Off.
01:38:33.000 : en:At The Airport.
pb.wtf



Скачать Только ты через торрент https://i7.imageban.ru/out/2021/08/17/3c656c1f47d71385e7ed8febb3f982c1.jpeg Скачать, смотреть онлайн Только ты бесплантно в хорошем качестве Описание: Школьная учительница Фэйт Корвач знала точно, что имя ее нареченного — Дэймон Брэдли. Ей это предсказала цыганка 14 лет назад. Но ... 10 10 5
Торрент: Зарегистрирован [2022-02-15 20:59] · скачан: 20 раз
Статус: √ проверено
Размер: 3.86 GB
Как cкачать? Как скачать Только ты через торрент | UTorrent

% Раздел Тема Автор DL S | L
Фильмы до 2000 г. [ 1.46 GB ] Только ты / Only You [1994 WEB-DLRip] killermax2013 Скачать
1 | 0
Фильмы с авторской озвучкой [ 1.46 GB ] Только ты / Only You [1994 WEB-DLRip] [AVO] killermax2013 Скачать
1 | 0
Порно фильмы с сюжетом [ 891 MB ] Если бы ты только знал / If You Only Knew [2012 Feature Couples. WEB-DL] Pir@tya2010 Скачать
1 | 0
Фильмы до 2000 г. [ 1.37 GB ] Только ты / Only You / профессиональный перевод [1994 Мело DVDRip] Joup Скачать
1 | 0

28-11-2019 20:33  

Отключить всю рекламу на сайте

    Дорогой пользователь! Огромная просьба, поблагодарите релизера, оцените раздачу и оставьте свои комментарий, если Вы скачали Только ты через торрент бесплатно!
    Комментировать посты могут только пользователи прошедшие не сложную регистрацию
    Показать сообщения:    

    Только ты через торрент
    Скачать бесплатно Только ты
    Только ты скачать торрент
    Только ты смотреть онлайн
    Cкачать фильм Только ты бесплатно
    Только ты скачать торрент в хорошем качестве
    Только ты смотреть онлайн бесплатно в хорошем качестве


    Вы не можете начинать темы
    Вы не можете отвечать на сообщения
    Вы не можете редактировать свои сообщения
    Вы не можете удалять свои сообщения
    Вы не можете голосовать в опросах
    Вы не можете прикреплять файлы к сообщениям
    Вы можете скачивать файлы