Всегда рабочее зеркало без VPN и Proxy просто перед .vidak.icu напиши любое слово или цифру, Пример http://p3nh.vidak.icu

MVO

Лицензия

1 сезон

1

1 сезон

iTunes

1 сезон

13

1 сезон

Deluxe

pack

Рекомендуем

Пиратка

30

ВАЖНО

RePack

MK11

RePack

jed

RePack

fifa19

RePack

RDR2

RePack

NEED FOR SPEED™ PAYBACK

Кинопоиск HD

6 сезон

 Острые козырьки 6 сезон

Все сериалы

все сериалы на PB.wtf

RePack

FAR CRY 5
  
Magnet ссылка

Водный человек / Водяной / The Water Man (Дэвид Ойелоуо) [2021, Фэнтези, семейный, приключения, BDRip 1080p] DUB [Netflix] pb.wtf

Водный человек через торрент pb.wtf

Раздают: 1 [ 0 KB/s ]
Размер: 6.56 GB | Добавлен: 10 мес. назад | Торрент скачан:360 раз
Смотреть онлайн Водный человек | Скачать    Ребята, помогите собрать деньги на оплату серверов!!!

18-08-2021 03:01 Водный человек Скачать торрент  

Водный человек | Водяной | The Water Man
Год выпуска: 2021
Страна: США
Студия: Harpo Films, ShivHans Pictures, Yoruba Saxon Productions
Жанр: Фэнтези, семейный, приключения
Продолжительность: 01:31:26
Перевод: Дублированный | Netflix
Субтитры: Русские (форсированные, полные), украинские (полные), английские (SDH)

Режиссер: Дэвид Ойелоуо

rating

В ролях: Розарио Доусон, Мария Белло, Альфред Молина, Дэвид Ойелоуо, Амайя Миллер, Джессика Ойелоуо, Лонни Чевис, Тед Руни, Джон Генри Уайтакер

Описание: Ганнер вел обычный образ жизни до определенного момента, когда узнал, что его заботливая и любимая мама неизлечимо больна. Каждый день Ганнер отправлялся на поиски лекарственных средств, которые должны были впоследствии помочь матери. Однако попытки заканчивались катастрофической неудачей. Ганнер практически отчаялся, но внезапно познакомился с новой ученицей Джо. Таинственная незнакомка рассказала, что ее бабушка перед смертью поведала уникальную историю о существовании загадочного, мифического Водяного. Мистическое создание обладало знаниями бессмертия, но никому из представителей человеческой расы не говорило рецепта волшебного снадобья. Ганнер отправляется на поиски мифического Водяного, который, по слухам, обладает магическими целительными способностями.

Качество: BDRip 1080p
Формат: MKV

Видео: 1920x804 (2.40:1), 24 fps, MPEG-4 AVC ~ 9 000 Kbps avg, 0.243 bit/pixel
Аудио: AC3, 48 kHz, 6 ch, ~640.00 kbps avg | русский | Netflix |
Аудио: AC3, 48 kHz, 6 ch, ~640.00 kbps avg | английский |
скриншот  скриншот  скриншот  скриншот  скриншот  

Общее
Уникальный идентификатор : 203436668021577851635005051302766796127 (0x990C7A21734BB43AB27D31133EFD5D5F)
Полное имя : The.Water.Man.2020.NF.1080p.BluRay.DD.5.1.x264.MegaPeer.mkv
Формат : Matroska
Версия формата : Version 4
Размер файла : 6,56 Гбайт
Продолжительность : 1 ч. 31 м.
Общий поток : 10,3 Мбит/сек
Название фильма : Водный человек / Водяной / The Water Man (2021) от MegaPeer
Дата кодирования : UTC 2021-08-18 01:25:25
Программа кодирования : mkvmerge v15.0.0 ('Duel with the Devil') 64-bit
Библиотека кодирования : libebml v1.3.5 + libmatroska v1.4.5
Обложка : Yes
Attachments : cover.jpg

Видео
Идентификатор : 1
Формат : AVC
Формат/Информация : Advanced Video Codec
Профиль формата : High@L4.1
Настройки формата : CABAC / 5 Ref Frames
Параметр CABAC формата : Да
Параметр RefFrames формата : 5 кадров
Идентификатор кодека : V_MPEG4/ISO/AVC
Продолжительность : 1 ч. 31 м.
Битрейт : 9 000 Кбит/сек
Ширина : 1 920 пикселей
Высота : 804 пикселя
Соотношение сторон : 2,40:1
Режим частоты кадров : Постоянный
Частота кадров : 24,000 кадра/сек
Цветовое пространство : YUV
Субдискретизация насыщенности : 4:2:0
Битовая глубина : 8 бит
Тип развёртки : Прогрессивная
Бит/(Пиксели*Кадры) : 0.243
Размер потока : 5,74 Гбайт (88%)
Заголовок : stillet@MegaPeer
Библиотека кодирования : x264 core 161 r3018 db0d417
Настройки программы : cabac=1 / ref=5 / deblock=1:-2:-2 / analyse=0x3:0x113 / me=umh / subme=11 / psy=1 / psy_rd=1.05:0.03 / mixed_ref=1 / me_range=48 / chroma_me=1 / trellis=2 / 8x8dct=1 / cqm=0 / deadzone=21,11 / fast_pskip=0 / chroma_qp_offset=-3 / threads=24 / lookahead_threads=6 / sliced_threads=0 / nr=0 / decimate=0 / interlaced=0 / bluray_compat=0 / constrained_intra=0 / bframes=11 / b_pyramid=2 / b_adapt=2 / b_bias=0 / direct=3 / weightb=1 / open_gop=0 / weightp=2 / keyint=240 / keyint_min=24 / scenecut=40 / intra_refresh=0 / rc_lookahead=40 / rc=2pass / mbtree=0 / bitrate=9000 / ratetol=1.0 / qcomp=0.60 / qpmin=0 / qpmax=69 / qpstep=4 / cplxblur=20.0 / qblur=0.5 / vbv_maxrate=50000 / vbv_bufsize=62500 / nal_hrd=none / filler=0 / ip_ratio=1.40 / pb_ratio=1.30 / aq=1:1.10
Язык : English
Default : Да
Forced : Нет

Аудио #1
Идентификатор : 2
Формат : AC-3
Формат/Информация : Audio Coding 3
Коммерческое название : Dolby Digital
Идентификатор кодека : A_AC3
Продолжительность : 1 ч. 31 м.
Вид битрейта : Постоянный
Битрейт : 640 Кбит/сек
Каналы : 6 каналов
Channel layout : L R C LFE Ls Rs
Частота : 48,0 КГц
Частота кадров : 31,250 кадров/сек (1536 SPF)
Метод сжатия : С потерями
Размер потока : 419 Мбайт (6%)
Заголовок : DUB | NetFlix
Язык : Russian
Service kind : Complete Main
Default : Да
Forced : Нет

Аудио #2
Идентификатор : 3
Формат : AC-3
Формат/Информация : Audio Coding 3
Коммерческое название : Dolby Digital
Идентификатор кодека : A_AC3
Продолжительность : 1 ч. 31 м.
Вид битрейта : Постоянный
Битрейт : 640 Кбит/сек
Каналы : 6 каналов
Channel layout : L R C LFE Ls Rs
Частота : 48,0 КГц
Частота кадров : 31,250 кадров/сек (1536 SPF)
Метод сжатия : С потерями
Размер потока : 419 Мбайт (6%)
Язык : English
Service kind : Complete Main
Default : Нет
Forced : Нет

Текст #1
Идентификатор : 4
Формат : UTF-8
Идентификатор кодека : S_TEXT/UTF8
Идентификатор кодека/Информация : UTF-8 Plain Text
Продолжительность : 1 ч. 30 м.
Битрейт : 3 бит/сек
Count of elements : 55
Размер потока : 2,38 Кбайт (0%)
Заголовок : Forced
Язык : Russian
Default : Да
Forced : Нет

Текст #2
Идентификатор : 5
Формат : UTF-8
Идентификатор кодека : S_TEXT/UTF8
Идентификатор кодека/Информация : UTF-8 Plain Text
Продолжительность : 1 ч. 30 м.
Битрейт : 47 бит/сек
Count of elements : 853
Размер потока : 31,4 Кбайт (0%)
Заголовок : Full
Язык : Russian
Default : Нет
Forced : Нет

Текст #3
Идентификатор : 6
Формат : UTF-8
Идентификатор кодека : S_TEXT/UTF8
Идентификатор кодека/Информация : UTF-8 Plain Text
Продолжительность : 1 ч. 30 м.
Битрейт : 49 бит/сек
Count of elements : 858
Размер потока : 32,7 Кбайт (0%)
Заголовок : Full
Язык : Ukrainian
Default : Нет
Forced : Нет

Текст #4
Идентификатор : 7
Формат : UTF-8
Идентификатор кодека : S_TEXT/UTF8
Идентификатор кодека/Информация : UTF-8 Plain Text
Продолжительность : 1 ч. 31 м.
Битрейт : 46 бит/сек
Count of elements : 1273
Размер потока : 31,1 Кбайт (0%)
Заголовок : SDH
Язык : English
Default : Нет
Forced : Нет

Меню
00:00:00.000 : :eng: 01
00:15:02.582 : :eng: 02
00:30:01.415 : :eng: 03
00:45:09.083 : :eng: 04
01:00:26.958 : :eng: 05
01:08:03.625 : :eng: 06
01:15:05.500 : :eng: 07
01:26:20.125 : :eng: 08
01:31:26.207 : :eng: 09

pb.wtf



Скачать Водный человек через торрент https://i115.fastpic.org/big/2021/0818/38/7d904138352045fe5f657228af28f038.jpg Скачать, смотреть онлайн Водный человек бесплантно в хорошем качестве Описание: Ганнер вел обычный образ жизни до определенного момента, когда узнал, что его заботливая и любимая мама неизлечимо больна. Каждый ... 9.9 10 12
Info! Золотая раздача, скачанное не засчитывается.
Торрент: Зарегистрирован [2021-08-18 03:01] · скачан: 360 раз
Статус: √ проверено
Размер: 6.56 GB
Как cкачать? Как скачать Водный человек через торрент | UTorrent

% Раздел Тема Автор DL S | L
Фильмы 2021 [DVDrip, WEB-DLRip, HDrip] (DUB, MVO) [ 1.46 GB ] Водный человек / Водяной / The Water Man [2021 BDRip] DUB [Netflix] bober100 Скачать
1 | 0
Фильмы [HD 720p, 1080p] (Хороший звук DUB, MVO) [ 3.05 GB ] Водный человек / Водяной / The Water Man [2021 BDRip 720p] DUB [Netflix] bober100 Скачать
1 | 0
Фильмы 2021 [DVDrip, WEB-DLRip, HDrip] (DUB, MVO) [ 746 MB ] Водный человек / Водяной / The Water Man [2021 BDRip] DUB [Netflix] bober100 Скачать
1 | 0

28-11-2019 20:33  

Отключить всю рекламу на сайте

    Дорогой пользователь! Огромная просьба, поблагодарите релизера, оцените раздачу и оставьте свои комментарий, если Вы скачали Водный человек через торрент бесплатно!
    Комментировать посты могут только пользователи прошедшие не сложную регистрацию
    Показать сообщения:    

    Водный человек через торрент
    Скачать бесплатно Водный человек
    Водный человек скачать торрент
    Водный человек смотреть онлайн
    Cкачать фильм Водный человек бесплатно
    Водный человек скачать торрент в хорошем качестве
    Водный человек смотреть онлайн бесплатно в хорошем качестве


    Вы не можете начинать темы
    Вы не можете отвечать на сообщения
    Вы не можете редактировать свои сообщения
    Вы не можете удалять свои сообщения
    Вы не можете голосовать в опросах
    Вы не можете прикреплять файлы к сообщениям
    Вы можете скачивать файлы