Лицензия

MVO

1

1 сезон

Лицензия

Лицензия

13

MVO

1 сезон

Deluxe Edition

pack

Рекомендуем

30

Repack

ВАЖНО

ВАЖНО

Ghostwire

RePack

jed

RePack

fifa19

RePack

RDR2

RePack

NEED FOR SPEED™ PAYBACK

RePack

Кинопоиск HD

 Острые козырьки 6 сезон

6 сезон

FAR CRY 6

RePack

Лицензия

MVO

1

1 сезон

1 сезон

Лицензия

  

G. I. Joe. Бросок кобры: Снейк Айз / Snake Eyes: G.I. Joe Origins (Роберт Швентке) [2021, Фантастика, фэнтези, боевик, триллер, приключения, BDRip 1080p] DUB [Пифагор]

G. I. Joe. Бросок кобры: Снейк Айз через торрент pb.wtf

Размер: 9.51 GB | Добавлен: 11 мес. назад | Торрент скачан:370 раз
Смотреть онлайн G. I. Joe. Бросок кобры: Снейк Айз | Скачать   

18-08-2021 23:29 G. I. Joe. Бросок кобры: Снейк Айз Скачать торрент  

G. I. Joe. Бросок кобры: Снейк Айз | Snake Eyes: G.I. Joe Origins
Год выпуска: 2021
Страна: Канада, США
Студия: Di Bonaventura Pictures, Hasbro Inc., Metro-Goldwyn-Mayer (MGM), Paramount Pictures, Skydance Productions
Жанр: Фантастика, фэнтези, боевик, триллер, приключения
Продолжительность: 02:01:24
Перевод: Дублированный | Пифагор
Субтитры: Русские (Forced, full), английские

Режиссер: Роберт Швентке

rating

В ролях: Генри Голдинг, Самара Уивинг, Урсула Корберо, Ико Уайс, Эндрю Кодзи, Харука Абэ, Стивен Аллерик, Питер Менса, Такехиро Хира, Самуэль Финци, Саймон Чин

Описание: Снейк Айз — самый загадочный и смертоносный член спецотряда G.I. Joe. Он всегда одет в черное, его лицо закрывает маска, и он никогда не разговаривает. Никто не знает, кто он и откуда.
«G.I. Joe: Бросок кобры. Снейк Айз» — спин-офф франшизы «Бросок кобры» о самом загадочном и смертоносном члене специального отряда G.I. Joe.

Качество: BDRip 1080p
Формат: MKV

Видео: MPEG-4 AVC, 1920x804, 9673 Кbit/s, 23.976 fps
Аудио #01: 48 kHz, E-AC3, 5.1, 448 Kbps | Дублированный | RUS |
Аудио #02: 48 kHz, AC3, 5.1, 448 Kbps | Дублированный | Пифагор | RUS |
Аудио #03: 48 kHz, AC3, 5.1, 640 Kbps | Оригинал | ENG |
скриншот  скриншот  скриншот  скриншот  скриншот  

General
Unique ID : 205688141763316411233511800578165063538 (0x9ABE185B4632101F92B7CDA942423F72)
Complete name : E:VideoSnake.Eyes.2021.BDRip.1080p.seleZen.mkv
Format : Matroska
Format version : Version 4
File size : 9.51 GiB
Duration : 2 h 1 min
Overall bit rate : 11.2 Mb/s
Movie name : Snake Eyes 2021 from seleZen
Encoded date : UTC 2021-10-09 09:45:48
Writing application : mkvmerge v59.0.0 ('Shining Star') 64-bit
Writing library : libebml v1.4.2 + libmatroska v1.6.4

Video
ID : 1
Format : AVC
Format/Info : Advanced Video Codec
Format profile : [email protected]
Format settings : CABAC / 5 Ref Frames
Format settings, CABAC : Yes
Format settings, Reference frames : 5 frames
Codec ID : V_MPEG4/ISO/AVC
Duration : 2 h 1 min
Bit rate : 9 673 kb/s
Width : 1 920 pixels
Height : 804 pixels
Display aspect ratio : 2.40:1
Frame rate mode : Constant
Frame rate : 23.976 (24000/1001) FPS
Color space : YUV
Chroma subsampling : 4:2:0
Bit depth : 8 bits
Scan type : Progressive
Bits/(Pixel*Frame) : 0.261
Stream size : 8.20 GiB (86%)
Title : MTeam
Writing library : x264 core 157 r2938 2b00a84 [email protected] Mod
Encoding settings : cabac=1 / ref=5 / deblock=1:-3:-3 / analyse=0x3:0x133 / me=umh / subme=10 / psy=1 / psy_rd=1.05:0.00 / mixed_ref=1 / me_range=32 / chroma_me=1 / trellis=2 / 8x8dct=1 / cqm=0 / deadzone=21,11 / fast_pskip=0 / chroma_qp_offset=-2 / threads=12 / lookahead_threads=2 / sliced_threads=0 / nr=0 / decimate=0 / interlaced=0 / bluray_compat=0 / constrained_intra=0 / bframes=8 / b_pyramid=2 / b_adapt=2 / b_bias=0 / direct=3 / weightb=1 / open_gop=0 / weightp=2 / keyint=250 / keyint_min=24 / scenecut=40 / intra_refresh=0 / rc_lookahead=250 / rc=crf / mbtree=0 / crf=16.8 / qcomp=0.60 / qpmin=0 / qpmax=69 / qpstep=4 / vbv_maxrate=62500 / vbv_bufsize=78125 / crf_max=0.0 / nal_hrd=none / filler=0 / ip_ratio=1.30 / pb_ratio=1.20 / aq=3:0.80
Language : English
Default : Yes
Forced : No
Color range : Limited
Color primaries : BT.709
Matrix coefficients : BT.709

Audio #1
ID : 2
Format : E-AC-3
Format/Info : Enhanced AC-3
Commercial name : Dolby Digital Plus
Codec ID : A_EAC3
Duration : 2 h 1 min
Bit rate mode : Constant
Bit rate : 448 kb/s
Channel(s) : 6 channels
Channel layout : L R C LFE Ls Rs
Sampling rate : 48.0 kHz
Frame rate : 31.250 FPS (1536 SPF)
Compression mode : Lossy
Stream size : 389 MiB (4%)
Title : Dub
Language : Russian
Service kind : Complete Main
Default : Yes
Forced : Yes

Audio #2
ID : 3
Format : AC-3
Format/Info : Audio Coding 3
Commercial name : Dolby Digital
Codec ID : A_AC3
Duration : 2 h 1 min
Bit rate mode : Constant
Bit rate : 448 kb/s
Channel(s) : 6 channels
Channel layout : L R C LFE Ls Rs
Sampling rate : 48.0 kHz
Frame rate : 31.250 FPS (1536 SPF)
Compression mode : Lossy
Stream size : 389 MiB (4%)
Title : Dub
Language : Russian
Service kind : Complete Main
Default : No
Forced : No

Audio #3
ID : 4
Format : AC-3
Format/Info : Audio Coding 3
Commercial name : Dolby Digital
Format settings : Dolby Surround EX
Codec ID : A_AC3
Duration : 2 h 1 min
Bit rate mode : Constant
Bit rate : 640 kb/s
Channel(s) : 6 channels
Channel layout : L R C LFE Ls Rs
Sampling rate : 48.0 kHz
Frame rate : 31.250 FPS (1536 SPF)
Compression mode : Lossy
Stream size : 556 MiB (6%)
Title : Original
Language : English
Service kind : Complete Main
Default : No
Forced : No

Text #1
ID : 5
Format : UTF-8
Codec ID : S_TEXT/UTF8
Codec ID/Info : UTF-8 Plain Text
Duration : 1 h 59 min
Bit rate : 1 b/s
Count of elements : 25
Stream size : 1.21 KiB (0%)
Title : Forced
Language : Russian
Default : Yes
Forced : Yes

Text #2
ID : 6
Format : UTF-8
Codec ID : S_TEXT/UTF8
Codec ID/Info : UTF-8 Plain Text
Duration : 1 h 59 min
Bit rate : 42 b/s
Count of elements : 797
Stream size : 37.0 KiB (0%)
Title : Full
Language : Russian
Default : No
Forced : No

Text #3
ID : 7
Format : UTF-8
Codec ID : S_TEXT/UTF8
Codec ID/Info : UTF-8 Plain Text
Duration : 1 h 52 min
Bit rate : 26 b/s
Count of elements : 775
Stream size : 22.0 KiB (0%)
Title : Full
Language : English
Default : No
Forced : No

Menu
00:00:00.000 : Chapter 01
00:10:17.367 : Chapter 02
00:19:39.887 : Chapter 03
00:28:50.062 : Chapter 04
00:37:50.977 : Chapter 05
00:43:39.867 : Chapter 06
00:54:53.790 : Chapter 07
01:03:18.920 : Chapter 08
01:14:04.440 : Chapter 09
01:23:59.117 : Chapter 10
01:29:09.219 : Chapter 11
01:36:39.293 : Chapter 12
01:46:26.922 : Chapter 13
01:53:51.533 : Chapter 14




Скачать G. I. Joe. Бросок кобры: Снейк Айз через торрент https://d.radikal.ru/d19/2108/89/a941fddefea6.jpg Скачать, смотреть онлайн G. I. Joe. Бросок кобры: Снейк Айз бесплантно в хорошем качестве Описание: Снейк Айз — самый загадочный и смертоносный член спецотряда G.I. Joe. Он всегда одет в черное, его лицо закрывает маска, и он ... 9.9 10 43
Info! Золотая раздача, скачанное не засчитывается.
Торрент: Зарегистрирован [2021-10-09 09:59] · скачан: 370 раз
Статус: √ проверено
Размер: 9.51 GB
Как cкачать? Как скачать G. I. Joe. Бросок кобры: Снейк Айз через торрент | UTorrent

% Раздел Тема Автор DL S | L
Фильмы (Blu-ray, BD-Remux, HDDVD) [ 39.77 GB ] G. I. Joe. Бросок кобры: Снейк Айз / Snake Eyes: G.I. Joe Origins | Лицензия | 1080p bober100 Скачать
1 | 0
Ultra HD (UHD: 2K, 4K, 8K) [ 49.02 GB ] G. I. Joe. Бросок кобры: Снейк Айз / Snake Eyes: G.I. Joe Origins | Пифагор | 2160p, (Dolby Vision Profile bober100 Скачать
2 | 0
Фильмы 2021 [DVDrip, WEB-DLRip, HDrip] (DUB, MVO) [ 1.46 GB ] G. I. Joe. Бросок кобры: Снейк Айз / Snake Eyes: G.I. Joe Origins | Лицензия Blu-ray CEE | BDRip bober100 Скачать
1 | 0
Фильмы 2021 [DVDrip, WEB-DLRip, HDrip] (DUB, MVO) [ 2.18 GB ] G. I. Joe. Бросок кобры: Снейк Айз / Snake Eyes: G.I. Joe Origins | Лицензия Blu-ray CEE | BDRip bober100 Скачать
1 | 0
Фильмы (Blu-ray, BD-Remux, HDDVD) [ 28.11 GB ] G. I. Joe. Бросок кобры: Снейк Айз / Snake Eyes: G.I. Joe Origins | Пифагор | BD Remux 1080p bober100 Скачать
1 | 0
Фильмы 2021 [DVDrip, WEB-DLRip, HDrip] (DUB, MVO) [ 2.42 GB ] G. I. Joe. Бросок кобры: Снейк Айз / Snake Eyes: G.I. Joe Origins | Пифагор | HDRip-AVC Lithuania Скачать
1 | 0
Фильмы [HD 720p, 1080p] (Хороший звук DUB, MVO) [ 4.32 GB ] G. I. Joe. Бросок кобры: Снейк Айз / Snake Eyes: G.I. Joe Origins | Пифагор | 720p bober100 Скачать
4 | 0



Последний раз редактировалось: bober100 (2021-10-09 10:10), всего редактировалось 3 раз(а)

28-11-2019 20:33  

Отключить вcю реклaмy на сайте

19-08-2021 04:56 G. I. Joe. Бросок кобры: Снейк Айз Скачать торрент  

тоесть то, что первые две части были юношеским Уг- их не остановило.
хммм.В теории -они могли же учиться на своих ошибках?.. вызов принят, качаю...



19-08-2021 19:58 G. I. Joe. Бросок кобры: Снейк Айз Скачать торрент  

пафосно и наивно. Сюжет может, и ничего, но вот сценарий -слабоват, герои не раскрыты, ходят какие то не настоящие, никакого сопереживания. Картинки красивые, а боевочки- ну ... Не знаю, я не спец)Но мне было скучновато. А еще часто абсурдик всплывает и ты думаешь- ЧТО?! что происходит ? зачем это все?
В общем, я надеялся... но неть....



20-08-2021 05:09 G. I. Joe. Бросок кобры: Снейк Айз Скачать торрент  

Ох и муть!!!Героя развели как ребёнка



    Дорогой пользователь! Огромная просьба, поблагодарите релизера, оцените раздачу и оставьте свои комментарий, если Вы скачали G. I. Joe. Бросок кобры: Снейк Айз через торрент бесплатно!!
    Комментировать посты могут только пользователи прошедшие не сложную регистрацию
    Показать сообщения:    


    G. I. Joe. Бросок кобры: Снейк Айз через торрент
    Скачать бесплатно G. I. Joe. Бросок кобры: Снейк Айз
    G. I. Joe. Бросок кобры: Снейк Айз скачать торрент
    G. I. Joe. Бросок кобры: Снейк Айз смотреть онлайн
    Cкачать фильм G. I. Joe. Бросок кобры: Снейк Айз бесплатно
    G. I. Joe. Бросок кобры: Снейк Айз скачать торрент в хорошем качестве
    G. I. Joe. Бросок кобры: Снейк Айз смотреть онлайн бесплатно в хорошем качестве
    Вы не можете начинать темы
    Вы не можете отвечать на сообщения
    Вы не можете редактировать свои сообщения
    Вы не можете удалять свои сообщения
    Вы не можете голосовать в опросах
    Вы не можете прикреплять файлы к сообщениям
    Вы можете скачивать файлы