Присоединяйтесь к нам в Telegram!, здесь всегда актуальный адрес сайта, оперативная поддержка и многое другое!!

>

5.9

iTunes

7.4

iTunes

9.4

1 сезон

1

7.4

2 сезон

7.2

iTunes

7.3

1 сезон

13

6.1

iTunes

8.3

Пиратка

30

ULTIMATE

pack

9.9

Лицензия

ВАЖНО

ИГРА 18+

pack

7.3

RePack

MK11

7.7

RePack

jed

7.8

RePack

fifa19

8.5

RePack

RDR2

RePack

NEED FOR SPEED™ PAYBACK

5 сезон

9 сезон

Бесстыжие 9 сезон

Все сериалы

все сериалы на PB.wtf

RePack

FAR CRY 5

Anonymous, доброе утро, мы катастрофически не успеваем собрать деньги на оплату серверов, помогите нам пожалуйста 5,10,15р., для нас важна любая помощь . В качестве благодарности мы отключим Вам всю рекламу на сайте (укажите свой ник в строку Ваше имя)!

×
  
Magnet ссылка

G. I. Joe. Бросок кобры: Снейк Айз / Snake Eyes: G.I. Joe Origins (Роберт Швентке) [2021, Фантастика, фэнтези, боевик, триллер, приключения, WEB-DLRip-AVC] DUB [Пифагор] pb.wtf

G. I. Joe. Бросок кобры: Снейк Айз через торрент pb.wtf

Раздают: 1 [ 0 KB/s ]
Размер: 2.11 GB | Добавлен: 3 мес. 17 д. назад | Торрент скачан:108 раз
Смотреть онлайн G. I. Joe. Бросок кобры: Снейк Айз | Скачать    Ребята, помогите собрать деньги на оплату серверов!!!

19-08-2021 20:04 G. I. Joe. Бросок кобры: Снейк Айз Скачать торрент  

G. I. Joe. Бросок кобры: Снейк Айз | Snake Eyes: G.I. Joe Origins
Год выпуска: 2021
Страна: Канада, США
Студия: Di Bonaventura Pictures, Hasbro Inc., Metro-Goldwyn-Mayer (MGM), Paramount Pictures, Skydance Productions
Жанр: Фантастика, фэнтези, боевик, триллер, приключения
Продолжительность: 02:01:25
Перевод: Дублированный | Пифагор
Субтитры: Русские (Forced, full), английские

Режиссер: Роберт Швентке

rating

В ролях: Генри Голдинг, Самара Уивинг, Урсула Корберо, Ико Уайс, Эндрю Кодзи, Харука Абэ, Стивен Аллерик, Питер Менса, Такехиро Хира, Самуэль Финци, Саймон Чин

Описание: Снейк Айз — самый загадочный и смертоносный член спецотряда G.I. Joe. Он всегда одет в черное, его лицо закрывает маска, и он никогда не разговаривает. Никто не знает, кто он и откуда.
«G.I. Joe: Бросок кобры. Снейк Айз» — спин-офф франшизы «Бросок кобры» о самом загадочном и смертоносном члене специального отряда G.I. Joe.

Качество: WEB-DLRip-AVC
Формат: MKV

Видео: 1024x428 at 23.976 fps, x264@L4.1, ~1649 kbps
Аудио 1: AC3, 6 ch, ~384 kbps - | Русский | -
Аудио 2: AC3, 6 ch, ~448 kbps - | Английский | -
скриншот  скриншот  скриншот  скриншот  скриншот  

x264 [info]: frame I:1370 Avg QP:16.31 size: 52678
x264 [info]: frame P:41348 Avg QP:18.33 size: 17446
x264 [info]: frame B:131956 Avg QP:20.61 size: 5367
x264 [info]: consecutive B-frames: 3.7% 4.2% 10.7% 17.3% 10.5% 48.0% 2.6% 0.7% 0.9% 0.3% 0.3% 0.4% 0.3%

General
Unique ID : 307082928776971060553218168301186681268 (0xE7060552C448B1041B9BD7DBACFF89B4)
Complete name : K:G.I.Joe.Бросок кобры-Снейк Айз.(2021).WEB-DLRip-AVC.[-=DoMiNo=-].mkv
Format : Matroska
Format version : Version 4
File size : 2.11 GiB
Duration : 2 h 1 min
Overall bit rate : 2 483 kb/s
Movie name : G.I.Joe.Бросок кобры-Снейк Айз.(2021).WEB-DLRip-AVC.[-=DoMiNo=-]
Encoded date : UTC 2021-08-19 07:11:27
Writing application : mkvmerge v60.0.0 ('Are We Copies?') 64-bit
Writing library : libebml v1.4.2 + libmatroska v1.6.4
Cover : Yes
Attachments : Cover.jpg / Cover 2.jpg

Video
ID : 1
Format : AVC
Format/Info : Advanced Video Codec
Format profile : High@L4.1
Format settings : CABAC / 12 Ref Frames
Format settings, CABAC : Yes
Format settings, Reference : 12 frames
Codec ID : V_MPEG4/ISO/AVC
Duration : 2 h 1 min
Bit rate : 1 649 kb/s
Width : 1 024 pixels
Height : 428 pixels
Display aspect ratio : 2.40:1
Frame rate mode : Constant
Frame rate : 23.976 (24000/1001) FPS
Color space : YUV
Chroma subsampling : 4:2:0
Bit depth : 8 bits
Scan type : Progressive
Bits/(Pixel*Frame) : 0.157
Stream size : 1.40 GiB (66%)
Title : -=DoMiNo=-
Writing library : x264 core 164 r3065+55M 280faca t_mod_New [(8 & 10)-bit@all X86_64]
Encoding settings : cabac=1 / ref=12 / deblock=1:-3:-2 / analyse=0x3:0x133 / me=umh / subme=10 / psy=1 / fade_compensate=0.00 / psy_rd=1.00:0.20 / mixed_ref=1 / me_range=32 / chroma_me=1 / trellis=2 / 8x8dct=1 / cqm=0 / deadzone=21,11 / fast_pskip=0 / chroma_qp_offset=-3 / threads=24 / lookahead_threads=3 / sliced_threads=0 / nr=0 / decimate=1 / interlaced=0 / bluray_compat=0 / constrained_intra=0 / fgo=0 / bframes=12 / b_pyramid=2 / b_adapt=2 / b_bias=0 / direct=1 / weightb=1 / open_gop=0 / weightp=2 / keyint=240 / keyint_min=23 / scenecut=40 / intra_refresh=0 / rc_lookahead=60 / rc=crf / mbtree=0 / crf=19.0000 / qcomp=0.65 / qpmin=0:0:0 / qpmax=69:69:69 / qpstep=4 / vbv_maxrate=50000 / vbv_bufsize=62500 / crf_max=0.0 / nal_hrd=none / filler=0 / ip_ratio=1.30 / pb_ratio=1.20 / aq=3:0.80 / aq-sensitivity=10.00 / aq-factor=1.00:1.00:1.00 / aq2=0 / aq3=0
Language : English
Default : Yes
Forced : No
Color range : Limited
Color primaries : BT.709
Transfer characteristics : BT.709
Matrix coefficients : BT.709

Audio #1
ID : 2
Format : AC-3
Format/Info : Audio Coding 3
Commercial name : Dolby Digital
Codec ID : A_AC3
Duration : 2 h 1 min
Bit rate mode : Constant
Bit rate : 384 kb/s
Channel(s) : 6 channels
Channel layout : L R C LFE Ls Rs
Sampling rate : 48.0 kHz
Frame rate : 31.250 FPS (1536 SPF)
Compression mode : Lossy
Stream size : 333 MiB (15%)
Title : Dub [Пифагор]
Language : Russian
Service kind : Complete Main
Default : Yes
Forced : Yes

Audio #2
ID : 3
Format : AC-3
Format/Info : Audio Coding 3
Commercial name : Dolby Digital
Codec ID : A_AC3
Duration : 2 h 1 min
Bit rate mode : Constant
Bit rate : 448 kb/s
Channel(s) : 6 channels
Channel layout : L R C LFE Ls Rs
Sampling rate : 48.0 kHz
Frame rate : 31.250 FPS (1536 SPF)
Compression mode : Lossy
Stream size : 389 MiB (18%)
Language : English
Service kind : Complete Main
Default : No
Forced : No

Text #1
ID : 4
Format : UTF-8
Codec ID : S_TEXT/UTF8
Codec ID/Info : UTF-8 Plain Text
Duration : 1 h 33 min
Bit rate : 1 b/s
Count of elements : 21
Stream size : 953 Bytes (0%)
Title : Forced
Language : Russian
Default : Yes
Forced : No

Text #2
ID : 5
Format : UTF-8
Codec ID : S_TEXT/UTF8
Codec ID/Info : UTF-8 Plain Text
Duration : 1 h 59 min
Bit rate : 41 b/s
Count of elements : 797
Stream size : 36.8 KiB (0%)
Title : Full
Language : Russian
Default : No
Forced : No

Text #3
ID : 6
Format : UTF-8
Codec ID : S_TEXT/UTF8
Codec ID/Info : UTF-8 Plain Text
Duration : 1 h 17 min
Bit rate : 0 b/s
Count of elements : 14
Stream size : 345 Bytes (0%)
Title : Forced
Language : English
Default : No
Forced : No

Text #4
ID : 7
Format : UTF-8
Codec ID : S_TEXT/UTF8
Codec ID/Info : UTF-8 Plain Text
Duration : 1 h 52 min
Bit rate : 27 b/s
Count of elements : 790
Stream size : 22.9 KiB (0%)
Title : Full
Language : English
Default : No
Forced : No

Text #5
ID : 8
Format : UTF-8
Codec ID : S_TEXT/UTF8
Codec ID/Info : UTF-8 Plain Text
Duration : 1 h 52 min
Bit rate : 31 b/s
Count of elements : 978
Stream size : 25.7 KiB (0%)
Title : SDH
Language : English
Default : No
Forced : No

pb.wtf



Скачать G. I. Joe. Бросок кобры: Снейк Айз через торрент https://i5.imageban.ru/out/2021/08/19/5ce5fe681534325c94e77e9f06ae25ff.jpg Скачать, смотреть онлайн G. I. Joe. Бросок кобры: Снейк Айз бесплантно в хорошем качестве Описание: Снейк Айз — самый загадочный и смертоносный член спецотряда G.I. Joe. Он всегда одет в черное, его лицо закрывает маска, и он ... 10 10 4
Торрент: Зарегистрирован [2021-08-19 20:04] · скачан: 108 раз
Статус: √ проверено
Размер: 2.11 GB
Как cкачать? Как скачать G. I. Joe. Бросок кобры: Снейк Айз через торрент | UTorrent

% Раздел Тема Автор DL S | L
Фильмы (Blu-ray, BD-Remux, HDDVD) [ 39.77 GB ] G. I. Joe. Бросок кобры: Снейк Айз / Snake Eyes: G.I. Joe Origins [2021 Blu-Ray EUR 1080p] DUB [] bober100 Скачать
1 | 0
Ultra HD (UHD: 2K, 4K, 8K) — видео сверхвысокой чёткости [ 49.02 GB ] G. I. Joe. Бросок кобры: Снейк Айз / Snake Eyes: G.I. Joe Origins [2021 UHD BDRemux 2160p ] DUB [Пифагор] bober100 Скачать
1 | 0
Фильмы 2021 [DVDrip, WEB-DLRip, HDrip] (DUB, MVO) [ 1.46 GB ] G. I. Joe. Бросок кобры: Снейк Айз / Snake Eyes: G.I. Joe Origins [2021 BDRip] DUB [ Blu-ray CEE] bober100 Скачать
4 | 0
Фильмы 2021 [DVDrip, WEB-DLRip, HDrip] (DUB, MVO) [ 2.18 GB ] G. I. Joe. Бросок кобры: Снейк Айз / Snake Eyes: G.I. Joe Origins [2021 BDRip] DUB [ Blu-ray CEE] bober100 Скачать
1 | 0
Фильмы (Blu-ray, BD-Remux, HDDVD) [ 28.11 GB ] G. I. Joe. Бросок кобры: Снейк Айз / Snake Eyes: G.I. Joe Origins [2021 BD Remux 1080p] DUB [Пифагор] bober100 Скачать
3 | 0
Фильмы 2021 [DVDrip, WEB-DLRip, HDrip] (DUB, MVO) [ 2.42 GB ] G. I. Joe. Бросок кобры: Снейк Айз / Snake Eyes: G.I. Joe Origins [2021 HDRip-AVC] DUB [Пифагор] от MediaBit Lithuania Скачать
3 | 0
Фильмы [HD 720p, 1080p] (Хороший звук DUB, MVO) [ 4.32 GB ] G. I. Joe. Бросок кобры: Снейк Айз / Snake Eyes: G.I. Joe Origins [2021 BDRip 720p] DUB [Пифагор] bober100 Скачать
6 | 0

28-11-2019 20:33  

Отключить всю рекламу на сайте

    Дорогой пользователь! Огромная просьба, поблагодарите релизера, оцените раздачу и оставьте свои комментарий, если Вы скачали G. I. Joe. Бросок кобры: Снейк Айз через торрент бесплатно!
    Комментировать посты могут только пользователи прошедшие не сложную регистрацию
    Показать сообщения:    

    G. I. Joe. Бросок кобры: Снейк Айз через торрент
    Скачать бесплатно G. I. Joe. Бросок кобры: Снейк Айз
    G. I. Joe. Бросок кобры: Снейк Айз скачать торрент
    G. I. Joe. Бросок кобры: Снейк Айз смотреть онлайн
    Cкачать фильм G. I. Joe. Бросок кобры: Снейк Айз бесплатно
    G. I. Joe. Бросок кобры: Снейк Айз скачать торрент в хорошем качестве
    G. I. Joe. Бросок кобры: Снейк Айз смотреть онлайн бесплатно в хорошем качестве


    Вы не можете начинать темы
    Вы не можете отвечать на сообщения
    Вы не можете редактировать свои сообщения
    Вы не можете удалять свои сообщения
    Вы не можете голосовать в опросах
    Вы не можете прикреплять файлы к сообщениям
    Вы можете скачивать файлы