Anonymous, доброй ночи, присоединяйтесь к нам в Telegram!, здесь всегда актуальный адрес сайта, оперативная поддержка и многое другое!

>

5.5

iTunes

7.4

iTunes

7.9

iTunes

1

7.7

1 сезон

6.8

iTunes

7.3

1 сезон

13

6.7

1 сезон

8.3

RePack

30

ULTIMATE

pack

9.9

Лицензия

ВАЖНО

ИГРА 18+

pack

7.3

RePack

MK11

7.7

RePack

jed

7.8

RePack

fifa19

8.5

RePack

RDR2

RePack

NEED FOR SPEED™ PAYBACK

4 сезон

9 сезон

Бесстыжие 9 сезон

Все сериалы

все сериалы на PB.wtf

RePack

FAR CRY 5

Anonymous, доброй ночи, мы катастрофически не успеваем собрать деньги на оплату серверов, помогите нам пожалуйста 5,10,15р., для нас важна любая помощь . В качестве благодарности мы отключим Вам всю рекламу на сайте (укажите свой ник в строку Ваше имя)!

×
  
Magnet ссылка

Маньячелло / Сезон: 1 / Серии: 1-8 из 8 (Жаргал Бадмацыренов) [2021, Комедия, WEBRip-AVC] pb.wtf

Маньячелло через торрент pb.wtf

Раздают: 2 [ 0.1 KB/s ]
Размер: 3.1 GB | Добавлен: 2 мес. 3 д. назад | Торрент скачан:88 раз
Смотреть онлайн Маньячелло | Скачать    Ребята, помогите собрать деньги на оплату серверов!!!

19-08-2021 21:20 Маньячелло Скачать торрент  

Маньячелло
Год выпуска: 2021
Страна: Россия
Выпущено: БайкалКино
Жанр: Комедия
Продолжительность: 00:23:20
Перевод: Не требуется
Субтитры: отсутствуют

Режиссер: Жаргал Бадмацыренов



В ролях: Владимир Барташевич, Ася Касьянова, Жаргал Бадмацыренов, Вадим Гусевский, Татьяна Нежельская, Владимир Ширапов, Алексей Клемашев, Сергей Гордейчук, Виктор Родионов (II)

Описание: История о вымышленном персонаже из деревни Сосновка, который очень любит классическую литературу. Настолько, что свои убийства он инсценирует по мотивам произведений Булгакова, Достоевского, Шекспира и других книжных классиков, но местные полицейские не могут этого понять. Они списывают убийства на заурядный криминал и мелкую бытовуху, чем ещё сильнее выводят из себя и без того нервного Тимофея...

Качество: WEBRip-AVC
Формат: MKV

Видео: MPEG-4 AVC, ~ 1600 Кбит/с, 1024x544, 25 кадр/с
Аудио: 48.0 kHz, AC3 Dolby Digital, 2/0 (L,R) ch, ~ 192 kbps
скриншот  скриншот  скриншот  скриншот  скриншот  

General
Unique ID : 171461009542082614680062421434954117578 (0x80FE307328DC6B9F94F78CBE782F71CA)
Complete name : F:\Маньячелло.(2021).WEBRip.(AVC).Files-x\01.Manyachello.(2021).WEBRip.(AVC).by.Серый1779.Files-x.mkv
Format : Matroska
Format version : Version 2
File size : 349 MiB
Duration : 27 min 12 s
Overall bit rate : 1 791 kb/s
Encoded date : UTC 2021-08-16 18:48:01
Writing application : mkvmerge v7.8.0 ('River Man') 32bit built on Apr 3 2015 12:11:22
Writing library : libebml v1.3.1 + libmatroska v1.4.2

Video
ID : 1
Format : AVC
Format/Info : Advanced Video Codec
Format profile : High@L4.1
Format settings : CABAC / 9 Ref Frames
Format settings, CABAC : Yes
Format settings, RefFrames : 9 frames
Codec ID : V_MPEG4/ISO/AVC
Duration : 27 min 12 s
Bit rate : 1 600 kb/s
Width : 1 024 pixels
Height : 544 pixels
Display aspect ratio : 1.882
Frame rate mode : Constant
Frame rate : 25.000 FPS
Color space : YUV
Chroma subsampling : 4:2:0
Bit depth : 8 bits
Scan type : Progressive
Bits/(Pixel*Frame) : 0.115
Stream size : 304 MiB (87%)
Writing library : x264 core 146 r2538 121396c
Encoding settings : cabac=1 / ref=9 / deblock=1:-2:-1 / analyse=0x3:0x133 / me=umh / subme=9 / psy=1 / psy_rd=1.00:0.15 / mixed_ref=1 / me_range=32 / chroma_me=1 / trellis=2 / 8x8dct=1 / cqm=0 / deadzone=21,11 / fast_pskip=0 / chroma_qp_offset=-3 / threads=18 / lookahead_threads=3 / sliced_threads=0 / nr=0 / decimate=1 / interlaced=0 / bluray_compat=0 / constrained_intra=0 / bframes=9 / b_pyramid=2 / b_adapt=2 / b_bias=0 / direct=1 / weightb=1 / open_gop=0 / weightp=2 / keyint=250 / keyint_min=25 / scenecut=40 / intra_refresh=0 / rc=2pass / mbtree=0 / bitrate=1600 / ratetol=1.0 / qcomp=0.60 / qpmin=0 / qpmax=69 / qpstep=4 / cplxblur=20.0 / qblur=0.5 / ip_ratio=1.40 / pb_ratio=1.30 / aq=2:1.00
Default : Yes
Forced : No
Color range : Limited
Color primaries : BT.709
Transfer characteristics : BT.709
Matrix coefficients : BT.709

Audio
ID : 2
Format : AC-3
Format/Info : Audio Coding 3
Format settings, Endianness : Big
Codec ID : A_AC3
Duration : 27 min 12 s
Bit rate mode : Constant
Bit rate : 192 kb/s
Channel(s) : 2 channels
Channel positions : Front: L R
Sampling rate : 48.0 kHz
Frame rate : 31.250 FPS (1536 SPF)
Bit depth : 16 bits
Compression mode : Lossy
Stream size : 37.4 MiB (11%)
Service kind : Complete Main
Default : Yes
Forced : No

pb.wtf



Скачать Маньячелло через торрент https://b.radikal.ru/b15/2108/91/c1cf6134c602.jpg Скачать, смотреть онлайн Маньячелло бесплантно в хорошем качестве Описание: История о вымышленном персонаже из деревни Сосновка, который очень любит классическую литературу. Настолько, что свои убийства он ... 10 10 9
Торрент: Зарегистрирован [2021-08-19 21:20] · скачан: 88 раз
Статус: √ проверено
Размер: 3.1 GB
Как cкачать? Как скачать Маньячелло через торрент | UTorrent

% Раздел Тема Автор DL S | L
TNT serials [ 8.05 GB ] Маньячелло / Сезон: 1 / Серии: 1-8 из 8 [2021 WEBRip 1080p] bober100 Скачать
6 | 0
TNT serials [ 3.1 GB ] Маньячелло / Сезон: 1 / Серии: 1-8 из 8 [2021 WEBRip] bober100 Скачать
13 | 1
TNT serials [ 5.47 GB ] Маньячелло / Сезон: 1 / Серии: 1-8 из 8 [2021 WEBRip 720p] bober100 Скачать
2 | 0
TNT serials [ 2.47 GB ] Маньячелло / Сезон: 1 / Серии: 1-8 из 8 [2021 SATRip] bober100 Скачать
2 | 0

28-11-2019 20:33  

Отключить всю рекламу на сайте

    Дорогой пользователь! Огромная просьба, поблагодарите релизера, оцените раздачу и оставьте свои комментарий, если Вы скачали Маньячелло через торрент бесплатно!
    Комментировать посты могут только пользователи прошедшие не сложную регистрацию
    Показать сообщения:    

    Маньячелло через торрент
    Скачать бесплатно Маньячелло
    Маньячелло скачать торрент
    Маньячелло смотреть онлайн
    Cкачать фильм Маньячелло бесплатно
    Маньячелло скачать торрент в хорошем качестве
    Маньячелло смотреть онлайн бесплатно в хорошем качестве


    Вы не можете начинать темы
    Вы не можете отвечать на сообщения
    Вы не можете редактировать свои сообщения
    Вы не можете удалять свои сообщения
    Вы не можете голосовать в опросах
    Вы не можете прикреплять файлы к сообщениям
    Вы можете скачивать файлы