Anonymous, добрый вечер, присоединяйтесь к нам в Telegram!, здесь всегда актуальный адрес сайта, оперативная поддержка и многое другое!

>

5.6

iTunes

7.4

iTunes

5.7

MVO

1

7.7

1 сезон

6.8

iTunes

7.3

1 сезон

13

6.7

1 сезон

8.3

RePack

30

ULTIMATE

pack

9.9

Лицензия

ВАЖНО

ИГРА 18+

pack

7.3

RePack

MK11

7.7

RePack

jed

7.8

RePack

fifa19

8.5

RePack

RDR2

RePack

NEED FOR SPEED™ PAYBACK

4 сезон

9 сезон

Бесстыжие 9 сезон

Все сериалы

все сериалы на PB.wtf

RePack

FAR CRY 5

Anonymous, добрый вечер, мы катастрофически не успеваем собрать деньги на оплату серверов, помогите нам пожалуйста 5,10,15р., для нас важна любая помощь . В качестве благодарности мы отключим Вам всю рекламу на сайте (укажите свой ник в строку Ваше имя)!

×
  
Magnet ссылка

Девять совсем незнакомых людей / Девять незнакомцев / Nine Perfect Strangers / Сезон: 1 / Серии: 1-8 из 8 (Джонатан Левин) [2021, Триллер, драма, детектив, WEB-DL 1080p] MVO [HDrezka Studio] pb.wtf

Девять совсем незнакомых людей через торрент pb.wtf

Раздают: 2 [ 47 KB/s ]
Размер: 14.49 GB | Добавлен: 25 д. назад | Торрент скачан:40 раз
Смотреть онлайн Девять совсем незнакомых людей | Скачать    Ребята, помогите собрать деньги на оплату серверов!!!

20-08-2021 11:15 Девять совсем незнакомых людей Скачать торрент  

Девять совсем незнакомых людей | Девять незнакомцев
Nine Perfect Strangers

Год выпуска: 2021
Страна: США
Выпущено: Blossom Films, Endeavor Content, Made Up Stories
Жанр: Триллер, драма, детектив
Продолжительность: ~ 00:44:00 серия
Перевод: Профессиональный (многоголосый) | HDrezka Studio
Субтитры: Русские (Forced), английские (Full, SDH), испанские (SDH)

Режиссер: Джонатан Левин

rating

В ролях: Тиффани Бун, Алила Браун, Бобби Каннавейл, Люк Эванс, Мелвин Грегг, Реджина Холл, Лес Хилл, Мэнни Хасинто, Ашер Кедди, Николь Кидман и другие

Описание: Девять незнакомых друг с другом людей съезжаются в австралийский курорт-отель, расположенный вдали от цивилизации, чтобы на неделю полностью забыть про внешний мир и поправить нервы. Однако благодаря хозяйке старинного особняка этот отдых станет для них совсем не тем, на который каждый из них рассчитывал.

Качество: WEB-DL 1080p
Формат: MKV

Видео: 1920x1080 at 23.976 fps, MPEG4-AVC, ~5000 kbps avg
Аудио#1 Russian: 48 kHz, AC3, 3/2 (L,C,R,l,r) + LFE ch, ~448 kbps avg
Аудио#2 English: 48 kHz, E-AC3, 3/2 (L,C,R,l,r) + LFE ch, ~256 kbps avg
скриншот  скриншот  скриншот  скриншот  

Общее
Уникальный идентификатор : 321349736851581686626165877008901464416 (0xF1C1B544E265972B3444AEBC4041E160)
Полное имя : Nine.Perfect.Strangers.S01E01.mkv
Формат : Matroska
Версия формата : Version 4
Размер файла : 1,75 Гбайт
Продолжительность : 43 м. 17 с.
Общий поток : 5 777 Кбит/сек
Название фильма : Nine Perfect Strangers S01E01 | mrrvg@rutor
Дата кодирования : UTC 2021-08-20 10:56:58
Программа кодирования : mkvmerge v52.0.0 ('Secret For The Mad') 64-bit
Библиотека кодирования : libebml v1.4.1 + libmatroska v1.6.2

Видео
Идентификатор : 1
Формат : AVC
Формат/Информация : Advanced Video Codec
Профиль формата : High@L4
Настройки формата : CABAC / 4 Ref Frames
Параметр CABAC формата : Да
Параметр RefFrames формата : 4 кадра
Идентификатор кодека : V_MPEG4/ISO/AVC
Продолжительность : 43 м. 17 с.
Битрейт : 5 088 Кбит/сек
Ширина : 1 920 пикселей
Высота : 1 080 пикселей
Соотношение сторон : 16:9
Режим частоты кадров : Постоянный
Частота кадров : 23,976 (24000/1001) кадра/сек
Цветовое пространство : YUV
Субдискретизация насыщенности : 4:2:0
Битовая глубина : 8 бит
Тип развёртки : Прогрессивная
Бит/(Пиксели*Кадры) : 0.102
Размер потока : 1,54 Гбайт (88%)
Default : Да
Forced : Нет

Аудио #1
Идентификатор : 2
Формат : AC-3
Формат/Информация : Audio Coding 3
Коммерческое название : Dolby Digital
Идентификатор кодека : A_AC3
Продолжительность : 41 м. 39 с.
Вид битрейта : Постоянный
Битрейт : 448 Кбит/сек
Каналы : 6 каналов
Channel layout : L R C LFE Ls Rs
Частота : 48,0 КГц
Частота кадров : 31,250 кадров/сек (1536 SPF)
Метод сжатия : С потерями
Размер потока : 133 Мбайт (7%)
Язык : Russian
Service kind : Complete Main
Default : Да
Forced : Нет

Аудио #2
Идентификатор : 3
Формат : E-AC-3
Формат/Информация : Enhanced AC-3
Коммерческое название : Dolby Digital Plus
Идентификатор кодека : A_EAC3
Продолжительность : 43 м. 17 с.
Вид битрейта : Постоянный
Битрейт : 256 Кбит/сек
Каналы : 6 каналов
Channel layout : L R C LFE Ls Rs
Частота : 48,0 КГц
Частота кадров : 31,250 кадров/сек (1536 SPF)
Метод сжатия : С потерями
Размер потока : 79,3 Мбайт (4%)
Язык : English
Service kind : Complete Main
Default : Нет
Forced : Нет

Текст #1
Идентификатор : 4
Формат : UTF-8
Идентификатор кодека : S_TEXT/UTF8
Идентификатор кодека/Информация : UTF-8 Plain Text
Продолжительность : 24 м. 36 с.
Битрейт : 5 бит/сек
Count of elements : 12
Размер потока : 966 байт (0%)
Заголовок : Forced
Язык : Russian
Default : Да
Forced : Нет

Текст #2
Идентификатор : 5
Формат : UTF-8
Идентификатор кодека : S_TEXT/UTF8
Идентификатор кодека/Информация : UTF-8 Plain Text
Продолжительность : 42 м. 57 с.
Битрейт : 87 бит/сек
Count of elements : 765
Размер потока : 27,4 Кбайт (0%)
Язык : English
Default : Нет
Forced : Нет

Текст #3
Идентификатор : 6
Формат : UTF-8
Идентификатор кодека : S_TEXT/UTF8
Идентификатор кодека/Информация : UTF-8 Plain Text
Продолжительность : 43 м. 14 с.
Битрейт : 94 бит/сек
Count of elements : 884
Размер потока : 29,9 Кбайт (0%)
Заголовок : SDH
Язык : English
Default : Нет
Forced : Нет

Текст #4
Идентификатор : 7
Формат : UTF-8
Идентификатор кодека : S_TEXT/UTF8
Идентификатор кодека/Информация : UTF-8 Plain Text
Продолжительность : 43 м. 15 с.
Битрейт : 91 бит/сек
Count of elements : 851
Размер потока : 28,9 Кбайт (0%)
Заголовок : SDH
Язык : Spanish
Default : Нет
Forced : Нет

Меню
00:08:41.000 : Chapter 1
00:17:12.000 : Chapter 2
00:24:01.000 : Chapter 3
00:32:30.000 : Chapter 4

Внимание! Раздача ведётся путём добавления новых серий; при каждом добавлении создаётся новый торрент.
Чтобы начать докачку новой серии, пользователям необходимо сделать следующее:
1. Остановить скачивание;
2. Удалить старый торрент у себя из клиента (старые серии удалять не надо);
3. Скачать новый торрент и запустить его у себя в клиенте вместо старого, при этом указать клиенту путь в старую папку куда и должно происходить скачивание новых серий. Ваш клиент при этом должен произвести хеширование (проверку) старой папки и будет докачивать только те серии, которых у вас ещё нет. Старые серии при этом не удаляются, а продолжают раздаваться! Eсли вы уже удалили старые серии, то предотвратить повторную закачку старых серий можно, отжав галочку в соответствующих местах при запуске нового торрента.

pb.wtf



Скачать Девять совсем незнакомых людей через торрент https://i115.fastpic.org/big/2021/0820/29/c05fa6dd9d9b518e73e6aceb3c34fb29.jpg Скачать, смотреть онлайн Девять совсем незнакомых людей бесплантно в хорошем качестве Описание: Девять незнакомых друг с другом людей съезжаются в австралийский курорт-отель, расположенный вдали от цивилизации, чтобы на ... 9.8 10 5
Торрент: Зарегистрирован [2021-09-23 17:56] · скачан: 40 раз
Статус: √ проверено
Размер: 14.49 GB
Как cкачать? Как скачать Девять совсем незнакомых людей через торрент | UTorrent

% Раздел Тема Автор DL S | L
Зарубежные сериалы [ 14.39 GB ] Девять совсем незнакомых людей / Девять незнакомцев / Nine Perfect Strangers / Сезон: 1 / Серии: 1-8 из 8 [2021 WEB-DL 1080p] MVO [LostFilm] bober100 Скачать
6 | 1
Зарубежные сериалы [ 4.18 GB ] Девять совсем незнакомых людей / Девять незнакомцев / Nine Perfect Strangers / Сезон: 1 / Серии: 1-8 из 8 [2021 WEB-DLRip] MVO [LostFilm] bober100 Скачать
5 | 0
Зарубежные сериалы [ 27.28 GB ] Девять совсем незнакомых людей / Девять незнакомцев / Nine Perfect Strangers / Сезон: 1 / Серии: 1-8 из 8 [2021 WEB-DL 1080p] MVO [AlexFilm] bober100 Скачать
2 | 2
Зарубежные сериалы [ 23.65 GB ] Девять совсем незнакомых людей / Девять незнакомцев / Nine Perfect Strangers / Сезон: 1 / Серии: 1-7 из 8 [2021 WEB-DL 1080p] 2xMVO [Jaskier TVShows] bober100 Скачать
2 | 0


Последний раз редактировалось: bober100 (2021-09-23 17:56), всего редактировалось 3 раз(а)

28-11-2019 20:33  

Отключить всю рекламу на сайте

09-09-2021 12:03 Девять совсем незнакомых людей Скачать торрент  

Нормальный сериальчик! За раздачу огромное спасибо!!!! pb.wtf



    Дорогой пользователь! Огромная просьба, поблагодарите релизера, оцените раздачу и оставьте свои комментарий, если Вы скачали Девять совсем незнакомых людей через торрент бесплатно!
    Комментировать посты могут только пользователи прошедшие не сложную регистрацию
    Показать сообщения:    

    Девять совсем незнакомых людей через торрент
    Скачать бесплатно Девять совсем незнакомых людей
    Девять совсем незнакомых людей скачать торрент
    Девять совсем незнакомых людей смотреть онлайн
    Cкачать фильм Девять совсем незнакомых людей бесплатно
    Девять совсем незнакомых людей скачать торрент в хорошем качестве
    Девять совсем незнакомых людей смотреть онлайн бесплатно в хорошем качестве


    Вы не можете начинать темы
    Вы не можете отвечать на сообщения
    Вы не можете редактировать свои сообщения
    Вы не можете удалять свои сообщения
    Вы не можете голосовать в опросах
    Вы не можете прикреплять файлы к сообщениям
    Вы можете скачивать файлы