Присоединяйтесь к нам в Telegram!, здесь всегда актуальный адрес сайта, оперативная поддержка и многое другое!!

>

5.9

iTunes

7.4

iTunes

9.4

1 сезон

1

7.4

2 сезон

7.2

iTunes

7.3

1 сезон

13

6.1

iTunes

8.3

GOG

30

ULTIMATE

pack

9.9

Лицензия

ВАЖНО

ИГРА 18+

pack

7.3

RePack

MK11

7.7

RePack

jed

7.8

RePack

fifa19

8.5

RePack

RDR2

RePack

NEED FOR SPEED™ PAYBACK

5 сезон

9 сезон

Бесстыжие 9 сезон

Все сериалы

все сериалы на PB.wtf

RePack

FAR CRY 5

Anonymous, добрый вечер, мы катастрофически не успеваем собрать деньги на оплату серверов, помогите нам пожалуйста 5,10,15р., для нас важна любая помощь . В качестве благодарности мы отключим Вам всю рекламу на сайте (укажите свой ник в строку Ваше имя)!

×
  
Magnet ссылка

По правде говоря / Truth Be Told / Сезон: 2 / Серии: 1-10 из 10 (Миккель Нёргор, Сара Пиа Андерсон, Такер Гейтс) [2021, Триллер, драма, криминал, детектив, WEB-DL 720p] MVO [Jaskier] pb.wtf

По правде говоря через торрент pb.wtf

Раздают: 1 [ 0 KB/s ]
Размер: 12.44 GB | Добавлен: 1 мес. 9 д. назад | Торрент скачан:4 раза
Смотреть онлайн По правде говоря | Скачать    Ребята, помогите собрать деньги на оплату серверов!!!

22-08-2021 01:54 По правде говоря Скачать торрент  

По правде говоря | Truth Be Told
Год выпуска: 2021
Страна: США
Студия: Chernin Entertainment, Endeavor Content, Hello Sunshine
Жанр: Триллер, драма, криминал, детектив
Продолжительность: ~ 00:50:00
Перевод: Профессиональный (многоголосый) | Jaskier
Субтитры: Английские

Режиссер: Миккель Нёргор, Сара Пиа Андерсон, Такер Гейтс

rating

В ролях: Октавия Спенсер, Аарон Пол, Рико Э. Андерсон, Лиззи Каплан, Майкл Бич, Мекхай Файфер, Трейси Томс, Ханифа Вуд, Рон Сепас Джонс, Элизабет Перкинс и др.

Описание: Автор подкастов Поппи Парнелл в свое время прославилась на всю страну, раскрыв громкое убийство. Но в деле всплывают новые улики, и теперь ей не избежать встречи с Уорреном Кейвом, который, возможно, оказался за решеткой из-за ее ошибки.

Качество: WEB-DL 720p
Формат: MKV

Видео: MPEG-4 AVC, 1356x678, 23.976 fps, 2800 kbps
Аудио#1 RUS: AC3, 48 kHz, 6 ch, ~384.00 kbps avg
Аудио#2 ENG: AC3, 48 kHz, 6 ch, ~384.00 kbps avg
скриншот  скриншот  скриншот  

Общее
Уникальный идентификатор : 225511120057018437488578423319567271583 (0xA9A7DCA4E3ABE05BBDDAE446E45C069F)
Полное имя : D:\Truth Be Told. Season 2 (WEB-DL l 720p l Jaskier)\Truth.Be.Told.S02E01.720p.WEB-DL.DD5.1.H.264-Jaskier.mkv
Формат : Matroska
Версия формата : Version 2
Размер файла : 1,29 Гбайт
Продолжительность : 51 м. 21 с.
Общий поток : 3 602 Кбит/сек
Дата кодирования : UTC 2021-08-21 19:58:12
Программа кодирования : mkvmerge v7.8.0 ('River Man') 32bit built on Apr 3 2015 12:11:22
Библиотека кодирования : libebml v1.3.1 + libmatroska v1.4.2

Видео
Идентификатор : 1
Формат : AVC
Формат/Информация : Advanced Video Codec
Профиль формата : High@L3.2
Настройки формата : CABAC / 5 Ref Frames
Параметр CABAC формата : Да
Параметр RefFrames формата : 5 кадров
Идентификатор кодека : V_MPEG4/ISO/AVC
Продолжительность : 51 м. 21 с.
Битрейт : 2 762 Кбит/сек
Ширина : 1 356 пикселей
Высота : 678 пикселей
Соотношение сторон : 2,000
Режим частоты кадров : Постоянный
Частота кадров : 23,976 (24000/1001) кадра/сек
Цветовое пространство : YUV
Субдискретизация насыщенности : 4:2:0
Битовая глубина : 8 бит
Тип развёртки : Прогрессивная
Бит/(Пиксели*Кадры) : 0.125
Размер потока : 1 015 Мбайт (77%)
Язык : English
Default : Да
Forced : Нет
Цветовой диапазон : Limited
Основные цвета : BT.709
Характеристики трансфера : BT.709
Коэффициенты матрицы : BT.709

Аудио #1
Идентификатор : 2
Формат : AC-3
Формат/Информация : Audio Coding 3
Коммерческое название : Dolby Digital
Идентификатор кодека : A_AC3
Продолжительность : 51 м. 21 с.
Вид битрейта : Постоянный
Битрейт : 384 Кбит/сек
Каналы : 6 каналов
Channel layout : L R C LFE Ls Rs
Частота : 48,0 КГц
Частота кадров : 31,250 кадров/сек (1536 SPF)
Метод сжатия : С потерями
Размер потока : 141 Мбайт (11%)
Заголовок : Jaskier
Язык : Russian
Service kind : Complete Main
Default : Да
Forced : Нет

Аудио #2
Идентификатор : 3
Формат : AC-3
Формат/Информация : Audio Coding 3
Коммерческое название : Dolby Digital
Идентификатор кодека : A_AC3
Продолжительность : 51 м. 21 с.
Вид битрейта : Постоянный
Битрейт : 384 Кбит/сек
Каналы : 6 каналов
Channel layout : L R C LFE Ls Rs
Частота : 48,0 КГц
Частота кадров : 31,250 кадров/сек (1536 SPF)
Метод сжатия : С потерями
Размер потока : 141 Мбайт (11%)
Язык : English
Service kind : Complete Main
Default : Нет
Forced : Нет

Текст
Идентификатор : 4
Формат : UTF-8
Идентификатор кодека : S_TEXT/UTF8
Идентификатор кодека/Информация : UTF-8 Plain Text
Язык : English
Default : Нет
Forced : Нет

Внимание! Раздача ведётся путём добавления новых серий; при каждом добавлении создfётся новый торрент. Чтобы начать докачку новой серии, пользователям необходимо сделать следующее: (1) остановить скачивание, (2) удалить старый торрент у себя из клиента (старые серии удалять не надо), (3) скачать новый торрент и запустить его у себя в клиенте вместо старого, при этом указать клиенту путь в старую папку куда и должно происходить скачивание новых серий.

Ваш клиент при этом должен произвести хеширование (проверку) старой папки (если не производит сам - помогите ему сделать это), и будет докачивать только те серии которых у вас ещё нет. Старые серии при этом не удаляются, а продолжают раздаваться!

Eсли вы уже удалили старые серии, то предотвратить повторную закачку старых серий можно, отжав галочку в соответсвующих местах при запуске нового торрента.
pb.wtf



Скачать По правде говоря через торрент https://a.radikal.ru/a21/2108/af/6b55f5267d37.png Скачать, смотреть онлайн По правде говоря бесплантно в хорошем качестве Описание: Автор подкастов Поппи Парнелл в свое время прославилась на всю страну, раскрыв громкое убийство. Но в деле всплывают новые улики, ... 10 10 2
Info! Золотая раздача, скачанное не засчитывается.
Торрент: Зарегистрирован [2021-10-24 03:01] · скачан: 4 раз
Статус: √ проверено
Размер: 12.44 GB
Как cкачать? Как скачать По правде говоря через торрент | UTorrent

% Раздел Тема Автор DL S | L
Зарубежные сериалы [ 35.33 GB ] По правде говоря / Truth Be Told / Сезон: 2 / Серии: 1-10 из 10 [2021 WEB-DL 1080p] MVO [Jaskier] bober100 Скачать
1 | 0
Зарубежные сериалы [ 5.47 GB ] По правде говоря / Truth Be Told / Сезон: 2 / Серии: 1-10 из 10 [2021 WEB-DLRip] MVO [Jaskier] bober100 Скачать
1 | 0

28-11-2019 20:33  

Отключить всю рекламу на сайте

    Дорогой пользователь! Огромная просьба, поблагодарите релизера, оцените раздачу и оставьте свои комментарий, если Вы скачали По правде говоря через торрент бесплатно!
    Комментировать посты могут только пользователи прошедшие не сложную регистрацию
    Показать сообщения:    

    По правде говоря через торрент
    Скачать бесплатно По правде говоря
    По правде говоря скачать торрент
    По правде говоря смотреть онлайн
    Cкачать фильм По правде говоря бесплатно
    По правде говоря скачать торрент в хорошем качестве
    По правде говоря смотреть онлайн бесплатно в хорошем качестве


    Вы не можете начинать темы
    Вы не можете отвечать на сообщения
    Вы не можете редактировать свои сообщения
    Вы не можете удалять свои сообщения
    Вы не можете голосовать в опросах
    Вы не можете прикреплять файлы к сообщениям
    Вы можете скачивать файлы