Присоединяйтесь к нам в Telegram!, здесь всегда актуальный адрес сайта, оперативная поддержка и многое другое!!

>

5.9

iTunes

7.4

iTunes

9.4

1 сезон

1

7.4

2 сезон

7.2

iTunes

7.3

1 сезон

13

6.1

iTunes

8.3

GOG

30

ULTIMATE

pack

9.9

Лицензия

ВАЖНО

ИГРА 18+

pack

7.3

RePack

MK11

7.7

RePack

jed

7.8

RePack

fifa19

8.5

RePack

RDR2

RePack

NEED FOR SPEED™ PAYBACK

5 сезон

9 сезон

Бесстыжие 9 сезон

Все сериалы

все сериалы на PB.wtf

RePack

FAR CRY 5

Anonymous, доброе утро, мы катастрофически не успеваем собрать деньги на оплату серверов, помогите нам пожалуйста 5,10,15р., для нас важна любая помощь . В качестве благодарности мы отключим Вам всю рекламу на сайте (укажите свой ник в строку Ваше имя)!

×
  
Magnet ссылка

Малышка / Sweet Girl (Брайан Мендоза) [2021, боевик, триллер, драма, WEB-DLRip-AVC] Dub [Netflix] pb.wtf

Малышка через торрент pb.wtf

Раздают: 73 [ 57 KB/s ] Качают: 1 [ 0 KB/s ]
Размер: 1.42 GB | Добавлен: 3 мес. 7 д. назад | Торрент скачан:337 раз
Смотреть онлайн Малышка | Скачать    Ребята, помогите собрать деньги на оплату серверов!!!

22-08-2021 08:38 Малышка Скачать торрент  

Малышка
Sweet Girl

«Family fights as one»

Страна: США
Жанр: боевик, триллер, драма
Год выпуска: 2021
Продолжительность: 01:50:09

Перевод: Профессиональный (полное дублирование) [SDI Media / Netflix]
Субтитры: русские (форсированные, полные)
Оригинальная аудиодорожка: нет

Режиссер: Брайан Мендоза / Brian Mendoza

В ролях: Джейсон Момоа, Изабела Мерсед, Мануэль Рульфо, Эми Бреннеман, Адриа Архона, Milena Rivero, Джастин Барта, Раза Джеффри, Лекс Скотт Дэвис, Майкл Рэймонд-Джеймс

Описание: Отец остался один с дочкой после убийства жены неизвестными. Не в силах ждать, пока полиция расследует дело, он клянется сам найти и покарать преступников.



Релиз:

Автор рипа: stalkerok

Сэмпл

Качество видео: WEB-DLRip-AVC | Исходник: Sweet.Girl.2021.1080p.NF.WEB-DL.DD5.1.HEVC-EniaHD
Формат видео: MKV
Видео кодек: AVC
Аудио кодек: AC3
Видео: AVC, 1393 Кбит/сек, 1046x438 (2.40:1), 24 кадр/сек
Аудио: AC3, 448 Кбит/сек, 48 КГц, 5.1 - русский
---[Information] [21.08.2021 19:20:18] x264 [info]: frame I:993 Avg QP:16.63 size: 40223
---[Information] [21.08.2021 19:20:18] x264 [info]: frame P:37958 Avg QP:18.78 size: 15234
---[Information] [21.08.2021 19:20:18] x264 [info]: frame B:119659 Avg QP:21.65 size: 4457
---[Information] [21.08.2021 19:20:18] x264 [info]: consecutive B-frames: 2.8% 4.8% 13.0% 21.9% 21.9% 18.3% 5.3% 7.7% 2.0% 0.4% 0.2% 0.2% 0.1% 0.3% 1.1%

General
Unique ID : 189610072890756000117838740889718665121 (0x8EA5925BD57FC66A895C9684BAFAAFA1)
Complete name : J:\Sweet.Girl.2021\Sweet.Girl.2021.NF.WEB-DLRip.x264.Rus.stalkerok.New-Team.mkv
Format : Matroska
Format version : Version 4
File size : 1.42 GiB
Duration : 1 h 50 min
Overall bit rate : 1 844 kb/s
Movie name : Sweet Girl (2021) | Rip by stalkerok
Encoded date : UTC 2021-08-21 16:31:02
Writing application : mkvmerge v60.0.0 ('Are We Copies?') 64-bit
Writing library : libebml v1.4.2 + libmatroska v1.6.4

Video
ID : 1
Format : AVC
Format/Info : Advanced Video Codec
Format profile : High@L4.1
Format settings : CABAC / 12 Ref Frames
Format settings, CABAC : Yes
Format settings, Reference frames : 12 frames
Codec ID : V_MPEG4/ISO/AVC
Duration : 1 h 50 min
Bit rate : 1 394 kb/s
Width : 1 046 pixels
Height : 438 pixels
Display aspect ratio : 2.40:1
Frame rate mode : Constant
Frame rate : 24.000 FPS
Color space : YUV
Chroma subsampling : 4:2:0
Bit depth : 8 bits
Scan type : Progressive
Bits/(Pixel*Frame) : 0.127
Stream size : 1.07 GiB (76%)
Writing library : x264 core 164 r3065+55M 280faca t_mod_New [(8 & 10)-bit@all X86_64]
Encoding settings : cabac=1 / ref=12 / deblock=1:-3:-2 / analyse=0x3:0x133 / me=umh / subme=10 / psy=1 / fade_compensate=0.00 / psy_rd=1.00:0.00 / mixed_ref=1 / me_range=32 / chroma_me=1 / trellis=2 / 8x8dct=1 / cqm=0 / deadzone=21,11 / fast_pskip=0 / chroma_qp_offset=-2 / threads=12 / lookahead_threads=3 / sliced_threads=0 / nr=0 / decimate=1 / interlaced=0 / bluray_compat=0 / constrained_intra=0 / fgo=0 / bframes=14 / b_pyramid=2 / b_adapt=2 / b_bias=0 / direct=3 / weightb=1 / open_gop=0 / weightp=2 / keyint=240 / keyint_min=23 / scenecut=40 / intra_refresh=0 / rc_lookahead=60 / rc=crf / mbtree=0 / crf=20.5000 / qcomp=0.65 / qpmin=0:0:0 / qpmax=69:69:69 / qpstep=4 / vbv_maxrate=50000 / vbv_bufsize=62500 / crf_max=0.0 / nal_hrd=none / filler=0 / ip_ratio=1.40 / pb_ratio=1.30 / aq=3:0.90 / aq-sensitivity=10.00 / aq-factor=1.00:1.00:1.00 / aq2=0 / aq3=0
Default : Yes
Forced : No

Audio
ID : 2
Format : AC-3
Format/Info : Audio Coding 3
Commercial name : Dolby Digital
Codec ID : A_AC3
Duration : 1 h 50 min
Bit rate mode : Constant
Bit rate : 448 kb/s
Channel(s) : 6 channels
Channel layout : L R C LFE Ls Rs
Sampling rate : 48.0 kHz
Frame rate : 31.250 FPS (1536 SPF)
Compression mode : Lossy
Stream size : 353 MiB (24%)
Language : Russian
Service kind : Complete Main
Default : Yes
Forced : No

Text #1
ID : 3
Format : UTF-8
Codec ID : S_TEXT/UTF8
Codec ID/Info : UTF-8 Plain Text
Duration : 1 h 47 min
Bit rate : 1 b/s
Count of elements : 37
Stream size : 1.43 KiB (0%)
Title : Forced
Language : Russian
Default : Yes
Forced : No

Text #2
ID : 4
Format : UTF-8
Codec ID : S_TEXT/UTF8
Codec ID/Info : UTF-8 Plain Text
Duration : 1 h 47 min
Bit rate : 59 b/s
Count of elements : 906
Stream size : 47.3 KiB (0%)
Language : Russian
Default : No
Forced : No
pb.wtf



Скачать Малышка через торрент http://i6.imageban.ru/out/2017/09/18/2ff75c0c358795c5946784cc1680714d.png Скачать, смотреть онлайн Малышка бесплантно в хорошем качестве Описание: Отец остался один с дочкой после убийства жены неизвестными. Не в силах ждать, пока полиция расследует дело, он клянется сам ... 10 10 10
Info! Золотая раздача, скачанное не засчитывается.
Торрент: Зарегистрирован [2021-08-22 08:38] · скачан: 337 раз
Статус: √ проверено
Размер: 1.42 GB
Как cкачать? Как скачать Малышка через торрент | UTorrent

% Раздел Тема Автор DL S | L
Фильмы (WEB-DL 720p, 1080p) [ 6.19 GB ] Малышка / Sweet Girl [2021 WEB-DL-HEVC 1080p] DUB [SDI Media / Netflix] bober100 Скачать
97 | 1
Фильмы 2021 [DVDrip, WEB-DLRip, HDrip] (DUB, MVO) [ 2.18 GB ] Малышка / Sweet Girl [2021 WEB-DLRip] - [Netflix] Twi7ter Скачать
34 | 2
Фильмы 2021 [DVDrip, WEB-DLRip, HDrip] (DUB, MVO) [ 1.46 GB ] Малышка / Sweet Girl [2021 WEB-DLRip] - [Netflix] Twi7ter Скачать
94 | 1
Фильмы 2021 [DVDrip, WEB-DLRip, HDrip] (DUB, MVO) [ 2.18 GB ] Малышка / Sweet Girl [2021 WEB-DLRip] DUB [SDI Media / Netflix] bober100 Скачать
1 | 0
Фильмы 2021 [DVDrip, WEB-DLRip, HDrip] (DUB, MVO) [ 1.74 GB ] Малышка / Sweet Girl [2021 WEB-DLRip-AVC] DUB [SDI Media / Netflix] bober100 Скачать
6 | 0
Фильмы (WEB-DL 720p, 1080p) [ 4.07 GB ] Малышка / Sweet Girl [2021 WEB-DL 1080p] DUB [SDI Media / Netflix] bober100 Скачать
8 | 0

28-11-2019 20:33  

Отключить всю рекламу на сайте

    Дорогой пользователь! Огромная просьба, поблагодарите релизера, оцените раздачу и оставьте свои комментарий, если Вы скачали Малышка через торрент бесплатно!
    Комментировать посты могут только пользователи прошедшие не сложную регистрацию
    Показать сообщения:    

    Малышка через торрент
    Скачать бесплатно Малышка
    Малышка скачать торрент
    Малышка смотреть онлайн
    Cкачать фильм Малышка бесплатно
    Малышка скачать торрент в хорошем качестве
    Малышка смотреть онлайн бесплатно в хорошем качестве


    Вы не можете начинать темы
    Вы не можете отвечать на сообщения
    Вы не можете редактировать свои сообщения
    Вы не можете удалять свои сообщения
    Вы не можете голосовать в опросах
    Вы не можете прикреплять файлы к сообщениям
    Вы можете скачивать файлы