>

5.6

iTunes

6.1

MVO

5.7

MVO

1

7.4

1 сезон

6.8

iTunes

7.2

1 сезон

13

6.7

1 сезон

8.3

RePack

30

Deluxe

pack

9.9

Лицензия

ВАЖНО

ИГРА 18+

pack

7.3

RePack

MK11

7.7

RePack

jed

7.8

RePack

fifa19

8.5

RePack

RDR2

RePack

NEED FOR SPEED™ PAYBACK

4 сезон

9 сезон

Бесстыжие 9 сезон

Все сериалы

все сериалы на PB.wtf

RePack

FAR CRY 5

Anonymous, доброй ночи, мы катастрофически не успеваем собрать деньги на оплату серверов, помогите нам пожалуйста 5,10,15р., для нас важна любая помощь . В качестве благодарности мы отключим Вам всю рекламу на сайте (укажите свой ник в строку Ваше имя)!

×
  
Magnet ссылка

Ведьмак: Кошмар волка / The Witcher: Nightmare of the Wolf (Хан Гван-иль) [2021, мультфильм, фэнтези, боевик, WEB-DL 720p] [Dub] (Пифагор) pb.wtf

Ведьмак: Кошмар волка через торрент pb.wtf

Раздают: 4 [ 14 KB/s ]
Размер: 1.91 GB | Добавлен: 1 мес. 1 д. назад | Торрент скачан:252 раза
Смотреть онлайн Ведьмак: Кошмар волка | Скачать    Ребята, помогите собрать деньги на оплату серверов!!!

23-08-2021 12:44 Ведьмак: Кошмар волка Скачать торрент  

Ведьмак: Кошмар волка / The Witcher: Nightmare of the Wolf
Год выпуска: 2021
Страна: США, Южная Корея
Студия: Base FX, Netflix, Sean Daniel Company, М.И.Р.
Жанр: мультфильм, фэнтези, боевик
Продолжительность: 01:23:35

Перевод: Профессиональный (дублированный) | Пифагор

Субтитры: Русские (Forced, Full), английские, украинские

Режиссер: Хан Гван-иль / Han Gwang-il
В ролях: Тео Джеймс, Грэм Мактавиш, Мэри МакДоннелл, Лара Пулвер, Мэттью Кинг, Том Кэнтон, Давид Эрриго мл.

Описание: Приквел сериала Ведьмак поведает о юности ведьмака Весемира из Каэр Морхена — главы Школы Волка и наставника Геральта. Мы узнаем, как он сам начинал свой путь, попав в ведьмачью школу, когда таинственный Деглан забрал мальчика на обучение, потребовав его по Праву Неожиданности.

rating

Качество: WEB-DL 720p
Контейнер: MKV
Видео: AVC, 1280x720, 24 fps, ~1416 kbps
Аудио №1: AC3, 48 kHz, 6 ch, 448 kbps
Аудио №2: E-AC3, 48 kHz, 6 ch, 640 kbps
Аудио №2: E-AC3 JOC, 48 kHz, 6 ch, 768 kbps
Формат субтитров: softsub (SRT)
скриншот  скриншот  скриншот  
Общее
Уникальный идентификатор : 55246246245396097492946090612445950876 (0x29900A3D2BDA2632D4442AA9E2FC339C)
Полное имя : E:TorrentsВедьмак- Кошмар.волка.2021.WEB-DL.720p.mkv
Формат : Matroska
Версия формата : Version 4
Размер файла : 1,91 Гбайт
Продолжительность : 1 ч. 23 м.
Режим общего битрейта : Переменный
Общий поток : 3 275 Кбит/сек
Название фильма : Ведьмак: Кошмар.волка.2021.WEB-DL.720p
Дата кодирования : UTC 2021-08-23 08:57:43
Программа кодирования : mkvmerge v59.0.0 ('Shining Star') 64-bit
Библиотека кодирования : libebml v1.4.2 + libmatroska v1.6.4

Видео
Идентификатор : 1
Формат : AVC
Формат/Информация : Advanced Video Codec
Профиль формата : Main@L3.1
Настройки формата : CABAC / 3 Ref Frames
Параметр CABAC формата : Да
Параметр RefFrames формата : 3 кадра
Идентификатор кодека : V_MPEG4/ISO/AVC
Продолжительность : 1 ч. 23 м.
Вид битрейта : Переменный
Битрейт : 1 416 Кбит/сек
Номинальный битрейт : 1 001 Кбит/сек
Максимальный битрейт : 3 075 Кбит/сек
Ширина : 1 280 пикселей
Высота : 720 пикселей
Соотношение сторон : 16:9
Режим частоты кадров : Постоянный
Частота кадров : 24,000 кадра/сек
Цветовое пространство : YUV
Субдискретизация насыщенности : 4:2:0
Битовая глубина : 8 бит
Тип развёртки : Прогрессивная
Бит/(Пиксели*Кадры) : 0.064
Размер потока : 847 Мбайт (43%)
Библиотека кодирования : x264 core 148 r2722 1b0121b
Настройки программы : cabac=1 / ref=3 / deblock=1:0:0 / analyse=0x1:0x111 / me=umh / subme=10 / psy=1 / psy_rd=1.00:0.00 / mixed_ref=1 / me_range=24 / chroma_me=1 / trellis=2 / 8x8dct=0 / cqm=0 / deadzone=21,11 / fast_pskip=1 / chroma_qp_offset=-2 / threads=8 / lookahead_threads=1 / sliced_threads=0 / nr=0 / decimate=1 / interlaced=0 / bluray_compat=0 / stitchable=1 / constrained_intra=0 / bframes=2 / b_pyramid=0 / b_adapt=2 / b_bias=0 / direct=3 / weightb=1 / open_gop=0 / weightp=2 / keyint=250 / keyint_min=24 / scenecut=0 / intra_refresh=0 / rc_lookahead=48 / rc=2pass / mbtree=1 / bitrate=1001 / ratetol=1.0 / qcomp=0.50 / qpmin=6 / qpmax=51 / qpstep=4 / cplxblur=20.0 / qblur=0.5 / vbv_maxrate=3075 / vbv_bufsize=4100 / nal_hrd=vbr / filler=0 / ip_ratio=1.40 / aq=1:1.00
Default : Да
Forced : Нет

Аудио #1
Идентификатор : 2
Формат : AC-3
Формат/Информация : Audio Coding 3
Коммерческое название : Dolby Digital
Идентификатор кодека : A_AC3
Продолжительность : 1 ч. 23 м.
Вид битрейта : Постоянный
Битрейт : 448 Кбит/сек
Каналы : 6 каналов
Channel layout : L R C LFE Ls Rs
Частота : 48,0 КГц
Частота кадров : 31,250 кадров/сек (1536 SPF)
Метод сжатия : С потерями
Размер потока : 268 Мбайт (14%)
Заголовок : Пифагор | Netflix
Язык : Russian
Service kind : Complete Main
Default : Да
Forced : Нет

Аудио #2
Идентификатор : 3
Формат : E-AC-3
Формат/Информация : Enhanced AC-3
Коммерческое название : Dolby Digital Plus
Идентификатор кодека : A_EAC3
Продолжительность : 1 ч. 23 м.
Вид битрейта : Постоянный
Битрейт : 640 Кбит/сек
Каналы : 6 каналов
Channel layout : L R C LFE Ls Rs
Частота : 48,0 КГц
Частота кадров : 31,250 кадров/сек (1536 SPF)
Метод сжатия : С потерями
Размер потока : 383 Мбайт (20%)
Заголовок : Пифагор | Netflix
Язык : Russian
Service kind : Complete Main
Default : Нет
Forced : Нет

Аудио #3
Идентификатор : 4
Формат : E-AC-3 JOC
Формат/Информация : Enhanced AC-3 with Joint Object Coding
Коммерческое название : Dolby Digital Plus with Dolby Atmos
Идентификатор кодека : A_EAC3
Продолжительность : 1 ч. 23 м.
Вид битрейта : Постоянный
Битрейт : 768 Кбит/сек
Каналы : 6 каналов
Channel layout : L R C LFE Ls Rs
Частота : 48,0 КГц
Частота кадров : 31,250 кадров/сек (1536 SPF)
Метод сжатия : С потерями
Размер потока : 459 Мбайт (23%)
Заголовок : English
Язык : English
Service kind : Complete Main
Default : Нет
Forced : Нет
Complexity index : 16
Number of dynamic objects : 15
Bed channel count : 1 канал
Bed channel configuration : LFE

Текст #1
Идентификатор : 5
Формат : UTF-8
Идентификатор кодека : S_TEXT/UTF8
Идентификатор кодека/Информация : UTF-8 Plain Text
Продолжительность : 1 ч. 21 м.
Битрейт : 87 бит/сек
Count of elements : 1020
Размер потока : 52,4 Кбайт (0%)
Заголовок : Russian
Язык : Russian
Default : Нет
Forced : Нет

Текст #2
Идентификатор : 6
Формат : UTF-8
Идентификатор кодека : S_TEXT/UTF8
Идентификатор кодека/Информация : UTF-8 Plain Text
Продолжительность : 1 ч. 21 м.
Битрейт : 62 бит/сек
Count of elements : 1194
Размер потока : 37,1 Кбайт (0%)
Заголовок : English CC
Язык : English
Default : Нет
Forced : Нет

Текст #3
Идентификатор : 7
Формат : UTF-8
Идентификатор кодека : S_TEXT/UTF8
Идентификатор кодека/Информация : UTF-8 Plain Text
Продолжительность : 1 ч. 21 м.
Битрейт : 81 бит/сек
Count of elements : 1045
Размер потока : 48,5 Кбайт (0%)
Заголовок : Ukrainian
Язык : Ukrainian
Default : Нет
Forced : Нет
pb.wtf



Скачать Ведьмак: Кошмар волка через торрент https://i3.imageban.ru/out/2021/08/23/9b14d974db5bbb0ec405351dcb1dac6d.jpg Скачать, смотреть онлайн Ведьмак: Кошмар волка бесплантно в хорошем качестве Описание: Приквел сериала Ведьмак поведает о юности ведьмака Весемира из Каэр Морхена — главы Школы Волка и наставника Геральта. Мы ... 10 10 10
Info! Золотая раздача, скачанное не засчитывается.
Торрент: Зарегистрирован [2021-08-23 12:44] · скачан: 252 раз
Статус: √ проверено
Размер: 1.91 GB
Как cкачать? Как скачать Ведьмак: Кошмар волка через торрент | UTorrent

% Раздел Тема Автор DL S | L
Аниме [HD 720p, 1080p] [ 3.51 GB ] Ведьмак: Кошмар волка / The Witcher: Nightmare of the Wolf [2021 мультфильм WEB-DL 1080p] killermax2013 Скачать
793 | 7

28-11-2019 20:33  

Отключить всю рекламу на сайте

23-08-2021 19:39 Ведьмак: Кошмар волка Скачать торрент  

Это великолепно!pb.wtf



    Дорогой пользователь! Огромная просьба, поблагодарите релизера, оцените раздачу и оставьте свои комментарий, если Вы скачали Ведьмак: Кошмар волка через торрент бесплатно!
    Комментировать посты могут только пользователи прошедшие не сложную регистрацию
    Показать сообщения:    

    Ведьмак: Кошмар волка через торрент
    Скачать бесплатно Ведьмак: Кошмар волка
    Ведьмак: Кошмар волка скачать торрент
    Ведьмак: Кошмар волка смотреть онлайн
    Cкачать фильм Ведьмак: Кошмар волка бесплатно
    Ведьмак: Кошмар волка скачать торрент в хорошем качестве
    Ведьмак: Кошмар волка смотреть онлайн бесплатно в хорошем качестве


    Вы не можете начинать темы
    Вы не можете отвечать на сообщения
    Вы не можете редактировать свои сообщения
    Вы не можете удалять свои сообщения
    Вы не можете голосовать в опросах
    Вы не можете прикреплять файлы к сообщениям
    Вы можете скачивать файлы