Anonymous, добрый вечер, присоединяйтесь к нам в Telegram!, здесь всегда актуальный адрес сайта, оперативная поддержка и многое другое!

>

5.6

iTunes

7.4

iTunes

5.7

MVO

1

7.7

1 сезон

6.8

iTunes

7.3

1 сезон

13

6.7

1 сезон

8.3

RePack

30

ULTIMATE

pack

9.9

Лицензия

ВАЖНО

ИГРА 18+

pack

7.3

RePack

MK11

7.7

RePack

jed

7.8

RePack

fifa19

8.5

RePack

RDR2

RePack

NEED FOR SPEED™ PAYBACK

4 сезон

9 сезон

Бесстыжие 9 сезон

Все сериалы

все сериалы на PB.wtf

RePack

FAR CRY 5

Anonymous, добрый вечер, мы катастрофически не успеваем собрать деньги на оплату серверов, помогите нам пожалуйста 5,10,15р., для нас важна любая помощь . В качестве благодарности мы отключим Вам всю рекламу на сайте (укажите свой ник в строку Ваше имя)!

×
  
Magnet ссылка

Чепелуэйт / Chapelwaite / Сезон: 1 / Серии: 1-9 из 10 (Бёрр Стирс, Джефф Ренфро, Рэйчел Лейтерман) [2021, Ужасы, драма, детектив, WEB-DL 1080p] MVO [LostFilm] pb.wtf

Чепелуэйт через торрент pb.wtf

Раздают: 2 [ 497 KB/s ]
Размер: 24.1 GB | Добавлен: 1 д. 22 ч. назад | Торрент скачан:4 раза
Смотреть онлайн Чепелуэйт | Скачать    Ребята, помогите собрать деньги на оплату серверов!!!

24-08-2021 22:21 Чепелуэйт Скачать торрент  

Чепелуэйт | Chapelwaite
Год выпуска: 2021
Страна: США
Выпущено: Epix
Жанр: Ужасы, драма, детектив
Продолжительность: ~ 01:00:00
Перевод: Профессиональный (многоголосый) | LostFilm
Субтитры: Русские (Forced, Full), английские (SDH)

Режиссер: Бёрр Стирс, Джефф Ренфро, Рэйчел Лейтерман, Дэвид Фрэйзи, Майкл Нанкин

rating

В ролях: Эдриан Броуди, Эмили Хэмпшир, Дженнифер Энс, Сирена Гуламгаус, Йен Хо, Трина Коркум, Горд Рэнд, Аллегра Фултон, Дин Армстронг, Себастьен Лабель, Вокс Смит, Майкл Хью, Гленн Лефчак, Джоэнн Боланд, Кристофер Хейердал, Чарли Риндресс, Дженни Рэймонд, Хью Томпсон, Лили Гао, Шон Скерри, Женевьева Дегрейвс, Девант Сениор, Акадия Колан, Дэвид Россетти, Джастин Колан

Описание: По мотивам рассказа Стивена Кинга «Поселение Иерусалим» (1978). Действие сериала происходит в Америке в 1850-е годы. Отставной капитан Чарльз Бун после смерти молодой жены переезжает с детьми в фамильный особняк Чепелуэйт в штате Мэн. Ему предстоит изучить историю своей семьи и вступить в борьбу с тёмными силами, контролирующими здание. В этом Буну поможет гувернантка его детей Ребекка Морган, которая хочет написать о тайнах Чепелуэйта роман.

Качество: WEB-DL 1080p
Формат: MKV

Видео: 1920x1080 at 23.976 fps, MPEG-4 AVC, ~7000 kbps avg
Аудио Rus: AC3, 48,0 kHz, 2 ch, 384 kbps | LostFilm
Аудио Eng: E-AC3, 48,0 kHz, 6 ch, 640 kbps | Original
скриншот  скриншот  скриншот  скриншот  

Общее
Уникальный идентификатор : 238261092949099394490474125385757844743 (0xB33F6AD76785E6756F7168DC0FBF6507)
Полное имя : D:\Chapelwaite.S01.WEB-DL.1080p.LF_RUTOR\Chapelwaite.S01E01.mkv
Формат : Matroska
Версия формата : Version 4
Размер файла : 3,38 Гбайт
Продолжительность : 1 ч. 0 м.
Общий поток : 8 044 Кбит/сек
Название фильма : Chapelwaite S01E01 | mrrvg@rutor
Дата кодирования : UTC 2021-08-24 22:10:19
Программа кодирования : mkvmerge v60.0.0 ('Are We Copies?') 64-bit
Библиотека кодирования : libebml v1.4.2 + libmatroska v1.6.4

Видео
Идентификатор : 1
Формат : AVC
Формат/Информация : Advanced Video Codec
Профиль формата : High@L4
Настройки формата : CABAC / 4 Ref Frames
Параметр CABAC формата : Да
Параметр RefFrames формата : 4 кадра
Идентификатор кодека : V_MPEG4/ISO/AVC
Продолжительность : 1 ч. 0 м.
Вид битрейта : Постоянный
Битрейт : 6 960 Кбит/сек
Номинальный битрейт : 10 000 Кбит/сек
Ширина : 1 920 пикселей
Высота : 1 080 пикселей
Соотношение сторон : 16:9
Режим частоты кадров : Постоянный
Частота кадров : 23,976 (24000/1001) кадра/сек
Цветовое пространство : YUV
Субдискретизация насыщенности : 4:2:0
Битовая глубина : 8 бит
Тип развёртки : Прогрессивная
Бит/(Пиксели*Кадры) : 0.138
Размер потока : 2,88 Гбайт (85%)
Default : Да
Forced : Нет
Цветовой диапазон : Limited
Основные цвета : BT.709
Характеристики трансфера : BT.709
Коэффициенты матрицы : BT.709

Аудио #1
Идентификатор : 2
Формат : AC-3
Формат/Информация : Audio Coding 3
Коммерческое название : Dolby Digital
Идентификатор кодека : A_AC3
Продолжительность : 1 ч. 0 м.
Вид битрейта : Постоянный
Битрейт : 384 Кбит/сек
Каналы : 2 канала
Channel layout : L R
Частота : 48,0 КГц
Частота кадров : 31,250 кадров/сек (1536 SPF)
Метод сжатия : С потерями
Размер потока : 165 Мбайт (5%)
Язык : Russian
Service kind : Complete Main
Default : Да
Forced : Нет

Аудио #2
Идентификатор : 3
Формат : E-AC-3
Формат/Информация : Enhanced AC-3
Коммерческое название : Dolby Digital Plus
Идентификатор кодека : A_EAC3
Продолжительность : 1 ч. 0 м.
Вид битрейта : Постоянный
Битрейт : 640 Кбит/сек
Каналы : 6 каналов
Channel layout : L R C LFE Ls Rs
Частота : 48,0 КГц
Частота кадров : 31,250 кадров/сек (1536 SPF)
Метод сжатия : С потерями
Размер потока : 276 Мбайт (8%)
Язык : English
Service kind : Complete Main
Default : Нет
Forced : Нет

Текст #1
Идентификатор : 4
Формат : UTF-8
Идентификатор кодека : S_TEXT/UTF8
Идентификатор кодека/Информация : UTF-8 Plain Text
Заголовок : Forced
Язык : Russian
Default : Да
Forced : Нет

Текст #2
Идентификатор : 5
Формат : UTF-8
Идентификатор кодека : S_TEXT/UTF8
Идентификатор кодека/Информация : UTF-8 Plain Text
Язык : Russian
Default : Нет
Forced : Нет

Текст #3
Идентификатор : 6
Формат : UTF-8
Идентификатор кодека : S_TEXT/UTF8
Идентификатор кодека/Информация : UTF-8 Plain Text
Заголовок : English
Язык : English
Default : Нет
Forced : Нет

Текст #4
Идентификатор : 7
Формат : UTF-8
Идентификатор кодека : S_TEXT/UTF8
Идентификатор кодека/Информация : UTF-8 Plain Text
Заголовок : English [CC]
Язык : English
Default : Нет
Forced : Нет

Внимание! Раздача ведётся путём добавления новых серий; при каждом добавлении создаётся новый торрент.
Чтобы начать докачку новой серии, пользователям необходимо сделать следующее:
1. Остановить скачивание;
2. Удалить старый торрент у себя из клиента (старые серии удалять не надо);
3. Скачать новый торрент и запустить его у себя в клиенте вместо старого, при этом указать клиенту путь в старую папку куда и должно происходить скачивание новых серий. Ваш клиент при этом должен произвести хеширование (проверку) старой папки и будет докачивать только те серии, которых у вас ещё нет. Старые серии при этом не удаляются, а продолжают раздаваться! Eсли вы уже удалили старые серии, то предотвратить повторную закачку старых серий можно, отжав галочку в соответствующих местах при запуске нового торрента.

pb.wtf



Скачать Чепелуэйт через торрент https://i115.fastpic.org/big/2021/0824/a1/9651cfccae1f4975e54d9b204b0f43a1.jpg Скачать, смотреть онлайн Чепелуэйт бесплантно в хорошем качестве Описание: По мотивам рассказа Стивена Кинга «Поселение Иерусалим» (1978). Действие сериала происходит в Америке в 1850-е годы. Отставной ... 10 10 4
Торрент: Зарегистрирован [2021-10-16 18:09] · скачан: 4 раз
Статус: √ проверено
Размер: 24.1 GB
Как cкачать? Как скачать Чепелуэйт через торрент | UTorrent

% Раздел Тема Автор DL S | L
Зарубежные сериалы [ 24.1 GB ] Чепелуэйт / Chapelwaite / Сезон: 1 / Серии: 1-9 из 10 [2021 WEB-DL 1080p] MVO [Кириллица / Amedia] bober100 Скачать
4 | 3
Зарубежные сериалы [ 6.75 GB ] Чепелуэйт / Chapelwaite / Сезон: 1 / Серии: 1-9 из 10 [2021 WEB-DLRip] MVO [AlexFilm] bober100 Скачать
3 | 3
Зарубежные сериалы [ 5.69 GB ] Чепелуэйт / Chapelwaite / Сезон: 1 / Серии: 1-9 из 10 [2021 WEB-DLRip] MVO [LostFilm] bober100 Скачать
5 | 0
Зарубежные сериалы [ 26.29 GB ] Чепелуэйт / Chapelwaite / Сезон: 1 / Серии: 1-10 из 10 [2021 WEB-DL 1080p] MVO [AlexFilm] bober100 Скачать
1 | 2

28-11-2019 20:33  

Отключить всю рекламу на сайте

    Дорогой пользователь! Огромная просьба, поблагодарите релизера, оцените раздачу и оставьте свои комментарий, если Вы скачали Чепелуэйт через торрент бесплатно!
    Комментировать посты могут только пользователи прошедшие не сложную регистрацию
    Показать сообщения:    

    Чепелуэйт через торрент
    Скачать бесплатно Чепелуэйт
    Чепелуэйт скачать торрент
    Чепелуэйт смотреть онлайн
    Cкачать фильм Чепелуэйт бесплатно
    Чепелуэйт скачать торрент в хорошем качестве
    Чепелуэйт смотреть онлайн бесплатно в хорошем качестве


    Вы не можете начинать темы
    Вы не можете отвечать на сообщения
    Вы не можете редактировать свои сообщения
    Вы не можете удалять свои сообщения
    Вы не можете голосовать в опросах
    Вы не можете прикреплять файлы к сообщениям
    Вы можете скачивать файлы