Достать ножи: Стеклянная луковица

MVO

Добыча

Дубляж

Уэнсдэй

1 сезон

Тор

Дубляж

13 клиническая

1 сезон

Жестокая ночь

MVO

Одни из нас

1 сезон

Deluxe

pack

Рекомендуем

30

Пиратка

ВАЖНО

ВАЖНО

Ghostwire

Пиратка

jed

RePack

nioh2

RePack

RDR2

RePack

NEED FOR SPEED™ PAYBACK

RePack

скачать торрент

Кинопоиск HD

Острые козырьки 6 сезон

6 сезон

FAR CRY 6

RePack

скачать торрент

Лицензия

скачать торрент

MVO

1

1 сезон

скачать торрент

1 сезон

скачать торрент

Лицензия

  

Ходячие мертвецы / The Walking Dead / Сезон: 11 / Серии: 1-24 из 24 (Грег Никотеро, Майкл Е. Сатраземис, Дэвид Бойд) [2021, Ужасы, триллер, драма, WEB-DLRip] MVO [LostFilm]

Ходячие мертвецы через торрент pb.wtf

Раздают: 3 [ 247 KB/s ] Качают: 1 [ 0 KB/s ]
Размер: 18.76 GB | Добавлен: 2 мес. 2 д. назад | Торрент скачан:100 раз
Смотреть онлайн | Скачать | Поддержите нас   

24-08-2021 22:43 Ходячие мертвецы Скачать торрент  

☠ ХОДЯЧИЕ МЕРТВЕЦЫ ☠
The Walking Dead

Год выпуска: 2021
Страна: США
Студия: AMC Studios, American Movie Classics (AMC), Circle of Confusion, Darkwoods Productions, Idiot Box Productions, Valhalla Motion Pictures
Жанр: Ужасы, триллер, драма
Продолжительность: ~00:45:00
Перевод: Профессиональный (многоголосый) | LostFilm
Субтитры: Отсутствуют

Режиссёр: Грег Никотеро, Майкл Е. Сатраземис, Дэвид Бойд

rating

В ролях: Норман Ридус, Мелисса Сюзанн МакБрайд, Лорен Кохэн, Джош Макдермитт, Кристиан Серратос, Данай Гурира, Сет Гиллиам, Эндрю Линкольн, Росс Маркванд, Чендлер Риггз и другие.
и др.

Описание: Сериал рассказывает историю жизни семьи шерифа после того, как «зомби» - эпидемия апокалиптических масштабов захлестнула земной шар. Шериф Рик Граймс путешествует со своей семьей и небольшой группой выживших в поисках безопасного места для жизни. Но постоянный страх смерти каждый день приносит тяжелые потери, заставляя героев почувствовать глубины человеческой жестокости. Рик пытается спасти свою семью, и открывает для себя, что всепоглощающий страх тех, кто выжил, может быть опаснее бессмысленных мертвецов, бродящих по земле.

Качество: WEB-DLRip
Формат: AVI

Видео: 720x400 at 23.976 fps, XviD, ~1600 kbps avg
Аудио Rus: 48.0 kHz, AC3 Dolby Digital, 2/0 (L,R) ch, ~ 192 kbps | LostFilm
Аудио Eng: 48.0 kHz, AC3 Dolby Digital, 2/0 (L,R) ch, ~ 192 kbps | Original
скриншот  скриншот  скриншот  скриншот  скриншот  скриншот  

General
Complete name : Downloads\The Walking Dead.S11.WEB-DLRip.LostFilm\The.Walking.Dead.S11.E01.WEB-DLRip.by.Сибиряк.avi
Format : AVI
Format/Info : Audio Video Interleave
File size : 803 MiB
Duration : 56 min 13 s
Overall bit rate : 1 998 kb/s
Writing application : VirtualDubMod 1.5.10.2 (build 2540/release)
Video #0
ID : 0
Format : MPEG-4 Visual
Format profile : Advanced [email protected]
Format settings : BVOP1
Format settings, BVOP : 1
Format settings, QPel : No
Format settings, GMC : No warppoints
Format settings, Matrix : Default (H.263)
Codec ID : XVID
Codec ID/Hint : XviD
Duration : 56 min 13 s
Bit rate : 1 600 kb/s
Width : 720 pixels
Height : 400 pixels
Display aspect ratio : 16:9
Frame rate : 24.000 FPS
Color space : YUV
Chroma subsampling : 4:2:0
Bit depth : 8 bits
Scan type : Progressive
Compression mode : Lossy
Bits/(Pixel*Frame) : 0.231
Stream size : 643 MiB (80%)
Writing library : XviD 69
Audio #1
ID : 1
Format : AC-3
Format/Info : Audio Coding 3
Codec ID : 2000
Duration : 56 min 12 s
Bit rate mode : Constant
Bit rate : 192 kb/s
Channel(s) : 2 channels
Channel positions : Front: L R
Sampling rate : 48.0 kHz
Frame rate : 31.250 FPS (1536 SPF)
Bit depth : 16 bits
Compression mode : Lossy
Stream size : 77.2 MiB (10%)
Alignment : Split accross interleaves
Interleave, duration : 42 ms (1.00 video frame)
Interleave, preload duration : 500 ms
Service kind : Complete Main
Audio #2
ID : 2
Format : AC-3
Format/Info : Audio Coding 3
Codec ID : 2000
Duration : 56 min 13 s
Bit rate mode : Constant
Bit rate : 192 kb/s
Channel(s) : 2 channels
Channel positions : Front: L R
Sampling rate : 48.0 kHz
Frame rate : 31.250 FPS (1536 SPF)
Bit depth : 16 bits
Compression mode : Lossy
Stream size : 77.2 MiB (10%)
Alignment : Split accross interleaves
Interleave, duration : 42 ms (1.00 video frame)
Interleave, preload duration : 500 ms
Service kind : Complete Main

Когда раздача ведётся путём добавления новых серий, при каждом добавлении создётся новый торрент. Чтобы начать докачку новой серии, пользователям необходимо сделать следующее:
(1) остановить скачивание,
(2) удалить старый торрент у себя из клиента (старые серии удалять не надо),
(3) скачать новый торрент и запустить его у себя в клиенте вместо старого, при этом указать клиенту путь в старую папку, куда и должно происходить скачивание новых серий.
Ваш клиент при этом должен произвести хеширование (проверку) старой папки (если не производит сам - помогите ему сделать это), и будет докачивать только те серии, которых у вас ещё нет. Старые серии при этом не удаляются, а продолжают раздаваться!
Eсли вы уже удалили старые серии, то предотвратить повторную закачку старых серий можно, отжав галочку в соответсвующих местах при запуске нового торрента. По возможности, желательно не удалять старые серии как можно дольше, чтобы релизёр не столько продолжал раздавать старые серии, а смог сконцентрироваться на новых.




Скачать Ходячие мертвецы через торрент https://i115.fastpic.org/big/2021/0826/f9/bfb54617fb442db771d0f1538a2ea0f9.png?r=1 Скачать, смотреть онлайн Ходячие мертвецы бесплантно в хорошем качестве Описание: Сериал рассказывает историю жизни семьи шерифа после того, как «зомби» - эпидемия апокалиптических масштабов захлестнула земной ... 9.2 10 11
Торрент: Зарегистрирован [2022-11-24 20:21] · скачан: 100 раз
Статус: √ проверено
Размер: 18.76 GB
Как cкачать? Как скачать Ходячие мертвецы через торрент | UTorrent

% Раздел Тема Автор DL S | L
T Зарубежные сериалы [ 65.39 GB ] Ходячие мертвецы / The Walking Dead / Сезон: 11 / Серии: 1-24 из 24 | | 1080p bober100 Скачать
3 | 2
Зарубежные сериалы [ 115.52 GB ] Ходячие мертвецы / The Walking Dead / Сезон: 11 / Серии: 1-24 из 24 | LostFilm | 1080p bober100 Скачать
4 | 2
Зарубежные сериалы [ 10.04 GB ] Ходячие мертвецы / The Walking Dead / Сезон: 11 / Серии: 1-16 из 24 | TVShows | DLRip bober100 Скачать
1 | 0



Последний раз редактировалось: bober100 (2022-11-24 20:21), всего редактировалось 4 раз(а)

28-11-2019 20:33  


Отключить вcю реклaмy на сайте, в т.ч. и в плеере онлайн просмотра!

11-04-2022 20:34 Ходячие мертвецы Скачать торрент  

Сериал бомбейский!!! Рванина по штанинам обеспечена!



    Дорогой пользователь! Огромная просьба, поблагодарите релизера, оцените раздачу и оставьте свои комментарий, если Вы скачали Ходячие мертвецы через торрент бесплатно!!
    Комментировать посты могут только пользователи прошедшие не сложную регистрацию
    Показать сообщения:    


    Ходячие мертвецы через торрент
    Скачать бесплатно Ходячие мертвецы
    Ходячие мертвецы скачать торрент
    Ходячие мертвецы смотреть онлайн
    Cкачать фильм Ходячие мертвецы бесплатно
    Ходячие мертвецы скачать торрент в хорошем качестве
    Ходячие мертвецы смотреть онлайн бесплатно в хорошем качестве
    Вы не можете начинать темы
    Вы не можете отвечать на сообщения
    Вы не можете редактировать свои сообщения
    Вы не можете удалять свои сообщения
    Вы не можете голосовать в опросах
    Вы не можете прикреплять файлы к сообщениям
    Вы можете скачивать файлы
    Ходячие мертвецы / The Walking Dead / Сезон: 11 / Серии: 1-24 из 24 [2021, Ужасы, триллер, драма, WEB-DLRip] MVO [LostFilm] смотреть онлайн, скачать торрент picoco.icu