>

5.6

iTunes

6.1

MVO

5.7

MVO

1

7.4

1 сезон

6.8

iTunes

7.2

1 сезон

13

6.7

1 сезон

8.3

RePack

30

Deluxe

pack

9.9

Лицензия

ВАЖНО

ИГРА 18+

pack

7.3

RePack

MK11

7.7

RePack

jed

7.8

RePack

fifa19

8.5

RePack

RDR2

RePack

NEED FOR SPEED™ PAYBACK

4 сезон

9 сезон

Бесстыжие 9 сезон

Все сериалы

все сериалы на PB.wtf

RePack

FAR CRY 5

Anonymous, доброй ночи, мы катастрофически не успеваем собрать деньги на оплату серверов, помогите нам пожалуйста 5,10,15р., для нас важна любая помощь . В качестве благодарности мы отключим Вам всю рекламу на сайте (укажите свой ник в строку Ваше имя)!

×
  
Magnet ссылка

Коса / Сезон: 1 / Серии: 1-7 из 12 (Игорь Волошин) [2021, Триллер, детектив, WEBRip 1080p] pb.wtf

Коса через торрент pb.wtf

Раздают: 3 [ 82 KB/s ] Качают: 3 [ 0 KB/s ]
Размер: 10.49 GB | Добавлен: 2 д. 23 ч. назад | Торрент скачан:8 раз
Смотреть онлайн Коса | Скачать    Ребята, помогите собрать деньги на оплату серверов!!!

24-08-2021 23:04 Коса Скачать торрент  

Коса
Год выпуска: 2021
Страна: Россия
Выпущено: МТС Медиа, продюсерская компания «Среда»
Жанр: Триллер, детектив
Продолжительность: ~ 00:30:00 серия
Субтитры: отсутствуют

Режиссер: Игорь Волошин



В ролях: Александр Горбатов (II), Линда Лапиньш, Анна Синякина, Виктория Агалакова, Игорь Ветров (II), Игорь Черневич, Василий Михайлов (II), Сергей Сосновский, Илья Кипоренко, Сафия Яруллина, Лиза Медведева, Ася Дубровская, Евгений Буслаков, Олег Васильков, Яна Сексте, Александр Чередник, Илья Исаев, Евгений Серзин, Ольга Макеева, Залим Мирзоев, Андрей Бронников (II), Дмитрий Богдан, Руслан Риманас, Ольга Сирина, Василина Маковцева, Павел Любимцев, Георгий Пицхелаури, Сергей Набирухин, Анатолий Смиранин (III)

Описание: На Куршской косе находят тело девочки, вспоротое от шеи до лобка, с белой лилией в руке. За дело берутся следователь Ева Кайдас и журналист Роман Рахманов, каждый из которых тяготится своей непережитой травмой. Так, два раненых существа, чувствующих непреодолимое, магнетическое притяжение друг к другу, проходят через страшный и мучительный опыт борьбы с самими собой и изучают непостижимую философию маньяка-эстета.

Качество: WEBRip 1080p
Формат: MKV

Видео: MPEG4 AVC Video, H264, 16:9, 1920x1080, 25 fps, ~6144 kbps, 0.119 bit/pixel
Аудио: 48.0 kHz, AC3 Dolby Digital, 2/0 (L,R) ch, ~ 192 kbps
скриншот  скриншот  скриншот  скриншот  

General
Unique ID : 204785017881758627498881051149055032378 (0x9A1028E94F7BD3D1B21CF4A360C7FC3A)
Complete name : D:\Kosa.2021.WEB-DL.(1080p).Getty\Kosa.e01.2021.WEB-DL.(1080p).Getty.mkv
Format : Matroska
Format version : Version 4 / Version 2
File size : 1.32 GiB
Duration : 30 min 15 s
Overall bit rate mode : Constant
Overall bit rate : 6 266 kb/s
Movie name : Kosa.e01.2021.WEB-DL.(1080p).Getty
Encoded date : UTC 2021-08-24 21:24:50
Writing application : mkvmerge v7.8.0 ('River Man') 32bit built on Mar 27 2015 16:18:02
Writing library : libebml v1.3.1 + libmatroska v1.4.2

Video
ID : 1
Format : AVC
Format/Info : Advanced Video Codec
Format profile : Baseline@L4
Format settings : 2 Ref Frames
Format settings, CABAC : No
Format settings, ReFrames : 2 frames
Format settings, GOP : M=1, N=25
Codec ID : V_MPEG4/ISO/AVC
Duration : 30 min 15 s
Bit rate mode : Constant
Bit rate : 6 144 kb/s
Width : 1 920 pixels
Height : 1 080 pixels
Display aspect ratio : 16:9
Frame rate mode : Constant
Frame rate : 25.000 FPS
Color space : YUV
Chroma subsampling : 4:2:0
Bit depth : 8 bits
Scan type : Progressive
Bits/(Pixel*Frame) : 0.119
Stream size : 1.28 GiB (97%)
Default : Yes
Forced : No

Audio
ID : 2
Format : AC-3
Format/Info : Audio Coding 3
Codec ID : A_AC3
Duration : 30 min 15 s
Bit rate mode : Constant
Bit rate : 192 kb/s
Channel(s) : 2 channels
Channel positions : Front: L R
Sampling rate : 48.0 kHz
Frame rate : 31.250 FPS (1536 SPF)
Bit depth : 16 bits
Compression mode : Lossy
Stream size : 41.6 MiB (3%)
Language : Russian
Service kind : Complete Main
Default : Yes
Forced : No

Когда раздача ведётся путём добавления новых серий, при каждом добавлении создётся новый торрент. Чтобы начать докачку новой серии, пользователям необходимо сделать следующее:
(1) остановить скачивание,
(2) удалить старый торрент у себя из клиента (старые серии удалять не надо),
(3) скачать новый торрент и запустить его у себя в клиенте вместо старого, при этом указать клиенту путь в старую папку, куда и должно происходить скачивание новых серий.
Ваш клиент при этом должен произвести хеширование (проверку) старой папки (если не производит сам - помогите ему сделать это), и будет докачивать только те серии, которых у вас ещё нет. Старые серии при этом не удаляются, а продолжают раздаваться!
Eсли вы уже удалили старые серии, то предотвратить повторную закачку старых серий можно, отжав галочку в соответсвующих местах при запуске нового торрента. По возможности, желательно не удалять старые серии как можно дольше, чтобы релизёр не столько продолжал раздавать старые серии, а смог сконцентрироваться на новых.

pb.wtf



Скачать Коса через торрент https://i115.fastpic.org/big/2021/0825/d6/6df92e96a593a95f2c1a1d1c589f82d6.jpg Скачать, смотреть онлайн Коса бесплантно в хорошем качестве Описание: На Куршской косе находят тело девочки, вспоротое от шеи до лобка, с белой лилией в руке. За дело берутся следователь Ева Кайдас и ... 10 10 8
Торрент: Зарегистрирован [2021-09-22 04:04] · скачан: 8 раз
Статус: √ проверено
Размер: 10.49 GB
Как cкачать? Как скачать Коса через торрент | UTorrent

% Раздел Тема Автор DL S | L
Наши сериалы [ 2.9 GB ] Коса / Сезон: 1 / Серии: 1-7 из 12 [2021 WEBRip-AVC] bober100 Скачать
3 | 4
Наши сериалы [ 3.1 GB ] Коса / Сезон: 1 / Серии: 1-7 из 12 [2021 WEBRip] bober100 Скачать
1 | 3
Наши сериалы [ 6.79 GB ] Коса / Сезон: 1 / Серии: 1-7 из 12 [2021 WEBRip 720p] bober100 Скачать
2 | 2

28-11-2019 20:33  

Отключить всю рекламу на сайте

    Дорогой пользователь! Огромная просьба, поблагодарите релизера, оцените раздачу и оставьте свои комментарий, если Вы скачали Коса через торрент бесплатно!
    Комментировать посты могут только пользователи прошедшие не сложную регистрацию
    Показать сообщения:    

    Коса через торрент
    Скачать бесплатно Коса
    Коса скачать торрент
    Коса смотреть онлайн
    Cкачать фильм Коса бесплатно
    Коса скачать торрент в хорошем качестве
    Коса смотреть онлайн бесплатно в хорошем качестве


    Вы не можете начинать темы
    Вы не можете отвечать на сообщения
    Вы не можете редактировать свои сообщения
    Вы не можете удалять свои сообщения
    Вы не можете голосовать в опросах
    Вы не можете прикреплять файлы к сообщениям
    Вы можете скачивать файлы